<?xml version="1.0" standalone="no"?>
<!DOCTYPE svg PUBLIC "-//W3C//DTD SVG 1.1//EN" "http://www.w3.org/Graphics/SVG/1.1/DTD/svg11.dtd">
<svg xmlns="http://www.w3.org/2000/svg"><metadata>This SVG WebFont was generated by YouWorkForThem.
Ellen Luff</metadata><defs><font horiz-adv-x="1406" id="ywftsvg"><font-face ascent="1638" bbox="-1257 -410 2030 1845" cap-height="1333" descent="-410" font-family="" font-stretch="normal" font-weight="600" panose-1="0 0 7 0 0 0 0 0 0 0" underline-position="0" underline-thickness="0" unicode-range="U+0020-2212" units-per-em="2048" x-height="1333"/><missing-glyph d="M756 1434v-1844h-584v1844h584zM614 176h-307v-209h307v209zM553 117v-88h-184v88h184zM614 496h-184v-103h62v41h61v-86h-184v148h-62v-209h307v209zM614 721h-61v-123h-246v-61h307v184zM614 831h-307v-61h123v-68h-123v-61h185v129h122v61zM430 1010v-66h-61v66h61z M492 1073h-185v-192h307v63h-122v129zM614 1311h-305v-62h121v-67h-123v-62h307v62h-122v67h122v62zM614 -74h-307v-61h129l-129 -86v-62h307v62h-188l129 86h59v61z" horiz-adv-x="921"/><glyph d="M756 1434v-1844h-584v1844h584zM614 176h-307v-209h307v209zM553 117v-88h-184v88h184zM614 496h-184v-103h62v41h61v-86h-184v148h-62v-209h307v209zM614 721h-61v-123h-246v-61h307v184zM614 831h-307v-61h123v-68h-123v-61h185v129h122v61zM430 1010v-66h-61v66h61z M492 1073h-185v-192h307v63h-122v129zM614 1311h-305v-62h121v-67h-123v-62h307v62h-122v67h122v62zM614 -74h-307v-61h129l-129 -86v-62h307v62h-188l129 86h59v61z" glyph-name=".notdef" horiz-adv-x="921"/><glyph glyph-name="glyph1" horiz-adv-x="0"/><glyph glyph-name="glyph2" horiz-adv-x="682"/><glyph glyph-name="space" horiz-adv-x="638" unicode=" "/><glyph d="M205.5 147.5q25.5 24.5 60.5 24.5t60.5 -25.5t25.5 -60.5t-25.5 -60.5t-60.5 -25.5t-60.5 25.5t-25.5 60.5q0 37 25.5 61.5zM352 1333v-170l-22 -880h-129l-21 880v170h172z" glyph-name="exclam" horiz-adv-x="532" unicode="!"/><glyph d="M440 1098l82 235h142l-123 -235h-101zM160 1098l82 235h139l-121 -235h-100z" glyph-name="quotedbl" horiz-adv-x="823" unicode="&quot;"/><glyph d="M1534 866l-299 2l-57 -403h299l-25 -170l-297 2l-41 -297h-170l39 297h-405l-43 -297h-170l41 297h-300l23 168h301l55 403h-297l23 168h299l41 297h172l-43 -297h407l41 297h170l-38 -297h296zM1008 465l57 403h-410l-55 -403h408z" glyph-name="numbersign" horiz-adv-x="1662" unicode="#"/><glyph d="M1020 537q51 -84 51 -177q0 -41 -14 -98q-43 -141 -176 -213q-84 -41 -187 -53v-201h-170v205q-207 31 -374 182l116 127q154 -145 367 -145q129 0 187.5 49t72.5 98q8 37 8 51q0 63 -46 112.5t-132 76.5l-264 78q-82 25 -145.5 69.5t-102.5 106.5q-49 80 -49 174 q0 51 14 100q43 141 178 213q76 41 170 51v207h170v-209q219 -25 389 -182l-116 -127q-154 145 -369 146q-127 0 -185.5 -49.5t-72.5 -98.5q-8 -25 -8 -53q0 -61 46 -110.5t132 -75.5l264 -78q170 -51 246 -176z" glyph-name="dollar" horiz-adv-x="1232" unicode="$"/><glyph d="M1334.5 6q-64.5 -39 -140.5 -39t-140.5 39t-102.5 104.5t-38 141.5t38 141.5t102.5 103.5t140.5 38t140.5 -38t103.5 -103.5t39 -141.5t-39 -141.5t-103.5 -104.5zM1271 330.5q-32 31.5 -77 31.5t-78 -31.5t-33 -78.5t33 -80t78 -33t77 33t32 80t-32 78.5zM570.5 839 q-64.5 -38 -140.5 -38t-140.5 38t-102 102.5t-37.5 141.5q0 76 37.5 141.5t102 103.5t140.5 38t140.5 -38t102.5 -103.5t38 -141.5q0 -78 -38 -142t-102.5 -102zM508 1162q-33 32 -78 32q-47 0 -79 -32t-32 -79t33 -79.5t78 -32.5t78 33.5t33 78.5q0 47 -33 79zM322 0 l784 1333h197l-783 -1333h-198z" glyph-name="percent" horiz-adv-x="1626" unicode="%"/><glyph d="M1321 0h-240l-127 125q-176 -137 -317 -137q-123 0 -224.5 50t-160.5 136t-59 188q0 170 129 273q59 41 81 53q-53 53 -93 129t-40 172q0 72 29 137.5t82 114.5q49 49 116.5 74.5t143.5 25.5q158 0 260 -100q53 -49 82 -114.5t29 -137.5q0 -70 -37 -135.5t-107 -118.5 l-120 123q43 31 68.5 65.5t25.5 65.5q0 76 -59.5 129t-141.5 53q-84 0 -142.5 -53t-58.5 -129q0 -92 86 -184zM836 248l-310 313q-88 -43 -126 -86t-38 -113q0 -84 80 -143t195 -59q74 0 199 88zM1335 432l-39 -31q-37 -33 -57 -47l-119 123l49 39q14 14 48 39z" glyph-name="ampersand" horiz-adv-x="1505" unicode="&amp;"/><glyph d="M150 1098l81 235h142l-121 -235h-102z" glyph-name="quotesingle" horiz-adv-x="499" unicode="'"/><glyph d="M386.5 253q64.5 -71 156.5 -89v-172q-139 14 -258 121q-63 61 -99 136t-36 148v537q0 74 35.5 148.5t99.5 136.5q119 106 258 120v-172q-92 -18 -156.5 -89.5t-64.5 -143.5v-537q0 -73 64.5 -144z" glyph-name="parenleft" horiz-adv-x="692" unicode="("/><glyph d="M306.5 257q64.5 71 64.5 144v533q0 74 -64.5 144.5t-156.5 90.5v172q143 -18 258 -120q63 -61 99 -136t36 -151v-533q0 -76 -35 -151.5t-100 -136.5q-115 -102 -258 -121v174q92 20 156.5 91z" glyph-name="parenright" horiz-adv-x="692" unicode=")"/><glyph d="M324 629l-136 100l164 225l-266 88l53 162l264 -86v279h172v-279l267 86l51 -162l-266 -88l166 -225l-140 -100l-164 225z" glyph-name="asterisk" horiz-adv-x="976" unicode="*"/><glyph d="M903 754v-170h-293v-293h-170v293h-290v170h290v293h170v-293h293z" glyph-name="plus" horiz-adv-x="1052" unicode="+"/><glyph d="M117 -119l84 236h139l-121 -236h-102z" glyph-name="comma" horiz-adv-x="489" unicode=","/><glyph d="M903 584h-753v170h753v-170z" glyph-name="hyphen" horiz-adv-x="1052" unicode="-"/><glyph d="M174.5 25.5q-24.5 25.5 -24.5 60.5t25.5 59.5t57.5 24.5q35 0 60.5 -25.5t25.5 -58.5q0 -35 -25.5 -60.5t-60.5 -25.5q-34 0 -58.5 25.5z" glyph-name="period" horiz-adv-x="468" unicode="."/><glyph d="M127 0l786 1333h199l-784 -1333h-201z" glyph-name="slash" horiz-adv-x="1239" unicode="/"/><glyph d="M786.5 20.5q-81.5 -32.5 -165.5 -32.5t-167 32.5t-147 92.5q-66 61 -101.5 136t-35.5 152v533q0 76 36 150.5t101 134.5q63 59 145.5 91.5t168.5 32.5q84 0 166.5 -32.5t146.5 -91.5q63 -59 99 -134t36 -151v-537q0 -74 -36 -148.5t-99 -135.5q-66 -60 -147.5 -92.5z M758.5 1137q-64.5 37 -137.5 37q-74 0 -138.5 -37t-103.5 -92.5t-39 -110.5v-533q0 -55 39 -112.5t103.5 -93t138.5 -35.5t138 35.5t102 91t38 110.5v537q0 55 -38 110.5t-102.5 92.5z" glyph-name="zero" horiz-adv-x="1218" unicode="0"/><glyph d="M86 877l522 503v-1380h-170v979l-352 -338v236z" glyph-name="one" horiz-adv-x="786" unicode="1"/><glyph d="M1001 172v-170h-874q106 147 322 432q152 201 214 289t91.5 148.5t29.5 111.5q0 20 -2 31q-12 82 -82 129q-57 39 -120 39q-119 0 -242 -135q-23 -25 -36 -42.5t-17 -23.5l-129 104l17 25.5t36 46.5q57 74 130 120t153 64q39 10 90 11q117 0 215 -68q63 -43 103 -105.5 t52 -138.5q4 -37 4 -53q0 -80 -35.5 -163t-93 -164.5t-172.5 -233.5q-160 -211 -190 -254h536z" glyph-name="two" horiz-adv-x="1128" unicode="2"/><glyph d="M964 570q46 -87 46 -181q0 -82 -36 -156.5t-104 -132.5q-63 -53 -145 -82.5t-172 -29.5q-88 0 -170 29.5t-147 82.5q-72 66 -109 148l145 106q20 -86 98.5 -141t182.5 -55q78 0 143.5 31.5t103.5 84t38 115.5q0 68 -41 126t-90 95q-29 23 -72 55.5t-62 47.5q14 14 47 48 t56 56q45 49 61.5 84t16.5 82q0 78 -58.5 133t-142.5 55q-82 0 -140.5 -55t-58.5 -133h-174q0 98 51.5 180t136.5 130t185 48t186 -48t136.5 -130t50.5 -180q0 -78 -24.5 -137.5t-72.5 -112.5q89 -76 135 -163z" glyph-name="three" horiz-adv-x="1136" unicode="3"/><glyph d="M973 0h-170v315h-697l670 1018h197v-848h264v-170h-264v-315zM424 485h379v578z" glyph-name="four" horiz-adv-x="1312" unicode="4"/><glyph d="M838.5 43q-105.5 -55 -232.5 -55q-90 0 -171 26.5t-146 79.5q-66 53 -102.5 122t-36.5 142h172q0 -55 43 -101t108.5 -72.5t132.5 -26.5q125 0 207 71q39 33 59.5 79t20.5 95q0 43 -20.5 84t-55.5 74q-86 74 -211 74l-321 -2h-90l51 700h770v-170h-610l-29 -358l229 2 q92 0 176 -31t148 -86q66 -57 100.5 -131t34.5 -156q0 -115 -60.5 -210t-166 -150z" glyph-name="five" horiz-adv-x="1161" unicode="5"/><glyph d="M569 1333h193l-105 -200q-43 -86 -176 -342q43 10 105 10q90 0 172 -30t147 -85q68 -57 103.5 -133t35.5 -160t-35.5 -158.5t-103.5 -132.5q-66 -55 -147.5 -84.5t-171.5 -29.5q-88 0 -171 29.5t-149 84.5q-68 57 -103.5 132t-35.5 159q0 86 43 172zM443.5 599 q-66.5 -32 -105.5 -87t-39 -119q0 -63 39 -117.5t104.5 -86t143.5 -31.5t144.5 31.5t104 86t37.5 117.5q0 66 -37.5 120t-104 86t-144.5 32q-76 0 -142.5 -32z" glyph-name="six" horiz-adv-x="1128" unicode="6"/><glyph d="M1079 1333l-700 -1333h-191l609 1163h-680v170h962z" glyph-name="seven" horiz-adv-x="1185" unicode="7"/><glyph d="M1004.5 553q35.5 -76 35.5 -160t-35.5 -157.5t-103.5 -131.5q-66 -55 -147.5 -84.5t-169.5 -29.5t-170 29.5t-148 84.5q-68 57 -103.5 131t-35.5 158t36 160t103 133l60 43q-53 51 -84 117.5t-31 142.5q0 96 50 178t136 130.5t187 48.5q100 0 186 -48.5t136 -130.5 t50 -178q0 -76 -30.5 -142.5t-83.5 -117.5l59 -43q68 -57 103.5 -133zM441.5 856q58.5 -55 142.5 -55t143 55t59 133q0 76 -60 131.5t-142 55.5t-141.5 -55.5t-59.5 -131.5q0 -78 58.5 -133zM727.5 191.5q65.5 31.5 103 85t37.5 116.5t-37.5 117.5t-103 86.5t-143.5 32 t-143.5 -32t-103.5 -86t-38 -118q0 -63 38 -116.5t103.5 -85t143.5 -31.5t143.5 31.5z" glyph-name="eight" horiz-adv-x="1146" unicode="8"/><glyph d="M598 0h-192l284 543q-57 -10 -104 -11q-88 0 -170 30t-150 85q-68 59 -103.5 135t-35.5 160t36 159t103 132q66 57 148 86t172 29q92 0 174 -29t145 -86q68 -57 103.5 -132t35.5 -159q0 -92 -40 -174zM726 735.5q67 30.5 106.5 84.5t39.5 122q0 63 -37.5 117.5t-104 86.5 t-144.5 32t-143.5 -32t-104.5 -86t-39 -118q0 -66 39 -120t104.5 -85.5t143.5 -31.5q73 0 140 30.5z" glyph-name="nine" horiz-adv-x="1171" unicode="9"/><glyph d="M174.5 152.5q-24.5 25.5 -24.5 60.5t24.5 60.5t58.5 25.5q35 0 60.5 -25.5t25.5 -60.5t-25.5 -60.5t-60.5 -25.5q-34 0 -58.5 25.5zM174.5 668.5q-24.5 25.5 -24.5 60.5t24.5 59.5t58.5 24.5q35 0 60.5 -24.5t25.5 -59.5t-25.5 -60.5t-60.5 -25.5q-34 0 -58.5 25.5z" glyph-name="colon" horiz-adv-x="468" unicode=":"/><glyph d="M239.5 488.5q-24.5 23.5 -24.5 60.5q0 35 25.5 60.5t60.5 25.5t59.5 -25.5t24.5 -60.5t-24.5 -59.5t-59.5 -24.5q-37 0 -61.5 23.5zM150 -119l79 236h142l-121 -236h-100z" glyph-name="semicolon" horiz-adv-x="534" unicode=";"/><glyph d="M844 375v-211l-694 504l694 499v-211l-404 -288z" glyph-name="less" horiz-adv-x="993" unicode="&lt;"/><glyph d="M903 356h-753v170h753v-170zM903 811h-753v170h753v-170z" glyph-name="equal" horiz-adv-x="1052" unicode="="/><glyph d="M150 958v213l692 -503l-692 -502v211l401 291z" glyph-name="greater" horiz-adv-x="991" unicode=">"/><glyph d="M645 350v-80h-149v80q0 80 22.5 136.5t54 90t82.5 74.5l50 39q78 63 119.5 117.5t41.5 134.5q0 63 -37.5 116.5t-103.5 85.5t-143 32q-76 0 -141.5 -32t-103.5 -85t-38 -117h-172q0 82 36 157t101 132q63 55 145.5 85t172.5 30t172 -30t145 -85q68 -57 102.5 -131 t34.5 -158q0 -139 -82 -246q-31 -39 -62.5 -69.5t-80.5 -69.5l-49 -39q-12 -10 -43 -32.5t-52.5 -52.5t-21.5 -83zM521.5 132q25.5 26 60.5 26t60.5 -26t25.5 -60q0 -35 -26 -59.5t-60 -24.5q-35 0 -60.5 24.5t-25.5 59.5q0 34 25.5 60z" glyph-name="question" horiz-adv-x="1208" unicode="?"/><glyph d="M1568.5 963.5q59.5 -140.5 59.5 -295.5q0 -76 -27.5 -141.5t-80.5 -114.5q-49 -45 -110.5 -71t-127.5 -26q-135 0 -227 99q-14 10 -35 37q-70 -49 -158 -50q-72 0 -133 36t-97 98.5t-36 134.5t36 134t97.5 98t132.5 36q39 0 94 -18v36h170v-315q6 -61 47 -108.5 t109 -47.5q33 0 64.5 13.5t54.5 36.5q55 47 55 133q0 121 -45 228.5t-131 193.5q-84 84 -192.5 128t-225.5 44q-162 0 -298 -80t-216 -216.5t-80 -297.5q0 -162 80 -299.5t216 -217t298 -79.5q158 0 299 82h269q-109 -119 -256.5 -185.5t-311.5 -66.5q-207 0 -383 103.5 t-279.5 279.5t-103.5 383t103.5 382t279.5 278.5t383 103.5q152 0 291 -56.5t246 -163.5q110 -108 169.5 -248.5zM932 601q29 30 29 69q0 41 -29 68.5t-70 27.5t-69.5 -27.5t-28.5 -68.5t28.5 -70t69.5 -29t70 30z" glyph-name="at" horiz-adv-x="1722" unicode="@"/><glyph d="M403 258l-118 -258h-189l625 1348l592 -1348h-187l-112 258h-611zM715 934l-234 -506h459z" glyph-name="A" unicode="A"/><glyph d="M1133 393q0 -76 -34 -147.5t-95 -126.5q-63 -57 -148.5 -88t-179.5 -31h-502v1333h401q186 0 306 -106q55 -49 84.5 -116t29.5 -138q0 -63 -21.5 -119.5t-60.5 -97.5l-16 -19q92 -41 160 -123q76 -104 76 -221zM344 791h227q84 0 138 20q115 57 114 162q0 74 -59 127 q-66 61 -189 61h-231v-370zM826.5 204q64.5 32 99.5 83t35 106q0 53 -34 106.5t-100 82.5q-92 39 -217 39h-266v-449h332q86 0 150.5 32z" glyph-name="B" horiz-adv-x="1239" unicode="B"/><glyph d="M1061 53.5q-137 -65.5 -293 -65.5q-182 0 -337 91t-245 247.5t-90 341.5q0 184 90 340.5t245 248t337 91.5q143 0 274.5 -58.5t225.5 -165.5l-127 -112q-72 78 -169.5 122t-203.5 44q-135 0 -251 -69t-183.5 -186.5t-67.5 -254.5t67.5 -255t183.5 -186.5t251 -68.5 q115 0 218.5 50t174.5 140l133 -106q-96 -123 -233 -188.5z" glyph-name="C" horiz-adv-x="1390" unicode="C"/><glyph d="M842 52q-123 -52 -264 -52h-404v1333h404q139 0 263 -52t212 -151q82 -92 126 -210.5t44 -249.5q0 -133 -44 -253t-126 -212q-88 -101 -211 -153zM344 1161v-991h234q150 0 257 70.5t162.5 185.5t55.5 244q0 98 -33 187t-96 159q-63 72 -152.5 108.5t-193.5 36.5h-234z " glyph-name="D" horiz-adv-x="1329" unicode="D"/><glyph d="M1026 0h-852v1333h852v-172h-682v-407h522v-172h-522v-412h682v-170z" glyph-name="E" horiz-adv-x="1200" unicode="E"/><glyph d="M348 0h-174v1333h852v-172h-678v-407h518v-172h-518v-582z" glyph-name="F" horiz-adv-x="1181" unicode="F"/><glyph d="M1260 705v-705h-494q-180 0 -333.5 91t-244 246t-90.5 337q0 184 90.5 338.5t243 245t334.5 90.5q139 0 269 -57.5t225 -162.5l-127 -114q-68 78 -165.5 120t-201.5 42q-135 0 -250 -68t-181.5 -182.5t-66.5 -251.5t66.5 -253t181.5 -183.5t250 -67.5h321v365h-366v170 h539z" glyph-name="G" horiz-adv-x="1435" unicode="G"/><glyph d="M1004 0l-3 582h-651v-582h-174v1333h174v-579h651v579h173v-1333h-170z" glyph-name="H" horiz-adv-x="1349" unicode="H"/><glyph d="M371 0h-172v1333h172v-1333z" glyph-name="I" horiz-adv-x="569" unicode="I"/><glyph d="M702.5 33q-96.5 -45 -206.5 -45q-139 0 -256 76.5t-187 214.5l154 77q45 -94 122 -146t167 -52q147 0 241 112q106 129 107 363v700h170v-700q0 -145 -38 -266t-110 -207q-67 -82 -163.5 -127z" glyph-name="J" horiz-adv-x="1177" unicode="J"/><glyph d="M1225 0h-221l-422 522l-408 -555v1366h174v-841l615 841h211l-488 -665z" glyph-name="K" horiz-adv-x="1331" unicode="K"/><glyph d="M1026 0h-852v1333h174v-1163h678v-170z" glyph-name="L" horiz-adv-x="1179" unicode="L"/><glyph d="M1550 0h-170v852l-514 -668l-516 670v-854h-174v1354l690 -889l684 889v-1354z" glyph-name="M" horiz-adv-x="1726" unicode="M"/><glyph d="M1212 -33l-864 940v-907h-172v1354l866 -936v915h170v-1366z" glyph-name="N" horiz-adv-x="1386" unicode="N"/><glyph d="M1107 79q-155 -91 -337 -91q-184 0 -339 91t-245 247.5t-90 341.5q0 184 90 339.5t245 247t339 91.5q182 0 337 -91.5t246 -247t91 -339.5t-91 -341t-246 -248zM1023 1107q-116 69 -253 69t-253 -69t-183.5 -185.5t-67.5 -253.5q0 -139 67.5 -256t183.5 -185.5t253 -68.5 t253 68.5t183.5 185t67.5 256.5q0 137 -67.5 253.5t-183.5 185.5z" glyph-name="O" horiz-adv-x="1540" unicode="O"/><glyph d="M348 0h-174v1333h488q88 0 168.5 -28.5t142.5 -81.5q66 -55 101.5 -129t35.5 -154q0 -82 -36 -154.5t-101 -130.5q-61 -53 -142 -82.5t-169 -29.5h-314v-543zM344 1161l4 -446h314q76 0 139 30.5t101 82t38 112.5q0 59 -38 110.5t-101.5 81t-138.5 29.5h-318z" glyph-name="P" horiz-adv-x="1226" unicode="P"/><glyph d="M1249 0l-100 104q-176 -117 -379 -116q-184 0 -339 91t-245 247.5t-90 341.5q0 184 90 339.5t245 247t339 91.5q182 0 337 -91.5t246 -247t91 -339.5q0 -127 -44 -243t-124 -208l207 -217h-234zM1028 231l-342 369l125 115l348 -371q55 68 85 151t30 173 q0 137 -67.5 253.5t-183.5 185.5t-253 69t-253 -69t-183.5 -185.5t-67.5 -253.5t67.5 -254t183.5 -185.5t253 -68.5q145 -1 258 71z" glyph-name="Q" horiz-adv-x="1589" unicode="Q"/><glyph d="M1114 0h-215l-506 715h193q80 0 135 10t82 20q66 29 101.5 85.5t35.5 109.5q0 57 -35 107.5t-100.5 82t-151.5 31.5h-309l4 -1161h-174v1333h479q96 0 180.5 -30.5t147.5 -88.5q61 -55 95 -126.5t34 -147.5q0 -121 -74 -217q-31 -41 -74.5 -76t-91.5 -57 q-76 -29 -141 -29z" glyph-name="R" horiz-adv-x="1241" unicode="R"/><glyph d="M1063 550q57 -87 57 -183q0 -80 -40 -153t-113 -126q-68 -51 -155 -77.5t-181 -26.5q-201 0 -340 104q-104 76 -139 188l159 91q0 -55 44 -104.5t118 -79t158 -29.5t157.5 29.5t116.5 77.5t43 106q0 47 -30.5 91t-88.5 74q-59 31 -211 50q-168 14 -253 59 q-106 49 -166 136t-60 188q0 80 40 152.5t112 125.5q143 104 340 105q94 0 180 -27t156 -78q102 -76 141 -188l-160 -90q0 55 -44 104t-116.5 78t-156.5 29q-86 0 -160 -29t-117 -77t-43 -105q0 -49 37 -97.5t92 -72.5q41 -20 113 -31.5t88 -13.5q84 -10 149.5 -24.5 t120.5 -43.5q95 -45 152 -132z" glyph-name="S" horiz-adv-x="1269" unicode="S"/><glyph d="M1184 1333v-172h-453v-1161h-174v1161h-453v172h1080z" glyph-name="T" horiz-adv-x="1288" unicode="T"/><glyph d="M893 28q-94 -40 -201 -40q-104 0 -199.5 40t-166.5 115q-74 74 -113 169.5t-39 201.5v819h170v-819q0 -72 26.5 -137.5t75.5 -114.5q109 -104 246 -104q70 0 133.5 27.5t112.5 76.5t75.5 114.5t26.5 137.5v819h170v-819q0 -106 -38.5 -201.5t-110.5 -169.5 q-74 -75 -168 -115z" glyph-name="U" horiz-adv-x="1384" unicode="U"/><glyph d="M698 389l422 944h189l-611 -1366l-608 1366h186z" glyph-name="V" horiz-adv-x="1402" unicode="V"/><glyph d="M1253 461l285 872h178l-444 -1366l-363 875l-364 -875l-449 1366h178l291 -874l344 827z" glyph-name="W" horiz-adv-x="1812" unicode="W"/><glyph d="M1210 1333l-450 -665l450 -668h-204l-349 516l-348 -516h-203l449 668l-449 665h203l348 -516l349 516h204z" glyph-name="X" horiz-adv-x="1316" unicode="X"/><glyph d="M737 637l437 696h204l-557 -876v-457h-170v457l-559 876h203z" glyph-name="Y" horiz-adv-x="1470" unicode="Y"/><glyph d="M1022 0h-862l604 1161h-582v172h865l-605 -1163h580v-170z" glyph-name="Z" horiz-adv-x="1206" unicode="Z"/><glyph d="M504 0h-354v1333h354v-172h-185v-989h185v-172z" glyph-name="bracketleft" horiz-adv-x="653" unicode="["/><glyph d="M913 0l-786 1333h201l784 -1333h-199z" glyph-name="backslash" horiz-adv-x="1239" unicode="\"/><glyph d="M504 0h-354v172h182v989h-182v172h354v-1333z" glyph-name="bracketright" horiz-adv-x="653" unicode="]"/><glyph d="M270 791l-120 118l466 467l463 -465l-121 -120l-342 344z" glyph-name="asciicircum" horiz-adv-x="1228" unicode="^"/><glyph d="M1475 0h-1348v170h1348v-170z" glyph-name="underscore" horiz-adv-x="1601" unicode="_"/><glyph d="M403 258l-118 -258h-189l625 1348l592 -1348h-187l-112 258h-611zM715 934l-234 -506h459z" glyph-name="a" unicode="a"/><glyph d="M1133 393q0 -76 -34 -147.5t-95 -126.5q-63 -57 -148.5 -88t-179.5 -31h-502v1333h401q186 0 306 -106q55 -49 84.5 -116t29.5 -138q0 -63 -21.5 -119.5t-60.5 -97.5l-16 -19q92 -41 160 -123q76 -104 76 -221zM344 791h227q84 0 138 20q115 57 114 162q0 74 -59 127 q-66 61 -189 61h-231v-370zM826.5 204q64.5 32 99.5 83t35 106q0 53 -34 106.5t-100 82.5q-92 39 -217 39h-266v-449h332q86 0 150.5 32z" glyph-name="b" horiz-adv-x="1239" unicode="b"/><glyph d="M1061 53.5q-137 -65.5 -293 -65.5q-182 0 -337 91t-245 247.5t-90 341.5q0 184 90 340.5t245 248t337 91.5q143 0 274.5 -58.5t225.5 -165.5l-127 -112q-72 78 -169.5 122t-203.5 44q-135 0 -251 -69t-183.5 -186.5t-67.5 -254.5t67.5 -255t183.5 -186.5t251 -68.5 q115 0 218.5 50t174.5 140l133 -106q-96 -123 -233 -188.5z" glyph-name="c" horiz-adv-x="1390" unicode="c"/><glyph d="M842 52q-123 -52 -264 -52h-404v1333h404q139 0 263 -52t212 -151q82 -92 126 -210.5t44 -249.5q0 -133 -44 -253t-126 -212q-88 -101 -211 -153zM344 1161v-991h234q150 0 257 70.5t162.5 185.5t55.5 244q0 98 -33 187t-96 159q-63 72 -152.5 108.5t-193.5 36.5h-234z " glyph-name="d" horiz-adv-x="1329" unicode="d"/><glyph d="M1026 0h-852v1333h852v-172h-682v-407h522v-172h-522v-412h682v-170z" glyph-name="e" horiz-adv-x="1200" unicode="e"/><glyph d="M348 0h-174v1333h852v-172h-678v-407h518v-172h-518v-582z" glyph-name="f" horiz-adv-x="1181" unicode="f"/><glyph d="M1260 705v-705h-494q-180 0 -333.5 91t-244 246t-90.5 337q0 184 90.5 338.5t243 245t334.5 90.5q139 0 269 -57.5t225 -162.5l-127 -114q-68 78 -165.5 120t-201.5 42q-135 0 -250 -68t-181.5 -182.5t-66.5 -251.5t66.5 -253t181.5 -183.5t250 -67.5h321v365h-366v170 h539z" glyph-name="g" horiz-adv-x="1435" unicode="g"/><glyph d="M1004 0l-3 582h-651v-582h-174v1333h174v-579h651v579h173v-1333h-170z" glyph-name="h" horiz-adv-x="1349" unicode="h"/><glyph d="M371 0h-172v1333h172v-1333z" glyph-name="i" horiz-adv-x="569" unicode="i"/><glyph d="M702.5 33q-96.5 -45 -206.5 -45q-139 0 -256 76.5t-187 214.5l154 77q45 -94 122 -146t167 -52q147 0 241 112q106 129 107 363v700h170v-700q0 -145 -38 -266t-110 -207q-67 -82 -163.5 -127z" glyph-name="j" horiz-adv-x="1177" unicode="j"/><glyph d="M1225 0h-221l-422 522l-408 -555v1366h174v-841l615 841h211l-488 -665z" glyph-name="k" horiz-adv-x="1331" unicode="k"/><glyph d="M1026 0h-852v1333h174v-1163h678v-170z" glyph-name="l" horiz-adv-x="1179" unicode="l"/><glyph d="M1550 0h-170v852l-514 -668l-516 670v-854h-174v1354l690 -889l684 889v-1354z" glyph-name="m" horiz-adv-x="1726" unicode="m"/><glyph d="M1212 -33l-864 940v-907h-172v1354l866 -936v915h170v-1366z" glyph-name="n" horiz-adv-x="1386" unicode="n"/><glyph d="M1107 79q-155 -91 -337 -91q-184 0 -339 91t-245 247.5t-90 341.5q0 184 90 339.5t245 247t339 91.5q182 0 337 -91.5t246 -247t91 -339.5t-91 -341t-246 -248zM1023 1107q-116 69 -253 69t-253 -69t-183.5 -185.5t-67.5 -253.5q0 -139 67.5 -256t183.5 -185.5t253 -68.5 t253 68.5t183.5 185t67.5 256.5q0 137 -67.5 253.5t-183.5 185.5z" glyph-name="o" horiz-adv-x="1540" unicode="o"/><glyph d="M348 0h-174v1333h488q88 0 168.5 -28.5t142.5 -81.5q66 -55 101.5 -129t35.5 -154q0 -82 -36 -154.5t-101 -130.5q-61 -53 -142 -82.5t-169 -29.5h-314v-543zM344 1161l4 -446h314q76 0 139 30.5t101 82t38 112.5q0 59 -38 110.5t-101.5 81t-138.5 29.5h-318z" glyph-name="p" horiz-adv-x="1226" unicode="p"/><glyph d="M1249 0l-100 104q-176 -117 -379 -116q-184 0 -339 91t-245 247.5t-90 341.5q0 184 90 339.5t245 247t339 91.5q182 0 337 -91.5t246 -247t91 -339.5q0 -127 -44 -243t-124 -208l207 -217h-234zM1028 231l-342 369l125 115l348 -371q55 68 85 151t30 173 q0 137 -67.5 253.5t-183.5 185.5t-253 69t-253 -69t-183.5 -185.5t-67.5 -253.5t67.5 -254t183.5 -185.5t253 -68.5q145 -1 258 71z" glyph-name="q" horiz-adv-x="1589" unicode="q"/><glyph d="M1114 0h-215l-506 715h193q80 0 135 10t82 20q66 29 101.5 85.5t35.5 109.5q0 57 -35 107.5t-100.5 82t-151.5 31.5h-309l4 -1161h-174v1333h479q96 0 180.5 -30.5t147.5 -88.5q61 -55 95 -126.5t34 -147.5q0 -121 -74 -217q-31 -41 -74.5 -76t-91.5 -57 q-76 -29 -141 -29z" glyph-name="r" horiz-adv-x="1241" unicode="r"/><glyph d="M1063 550q57 -87 57 -183q0 -80 -40 -153t-113 -126q-68 -51 -155 -77.5t-181 -26.5q-201 0 -340 104q-104 76 -139 188l159 91q0 -55 44 -104.5t118 -79t158 -29.5t157.5 29.5t116.5 77.5t43 106q0 47 -30.5 91t-88.5 74q-59 31 -211 50q-168 14 -253 59 q-106 49 -166 136t-60 188q0 80 40 152.5t112 125.5q143 104 340 105q94 0 180 -27t156 -78q102 -76 141 -188l-160 -90q0 55 -44 104t-116.5 78t-156.5 29q-86 0 -160 -29t-117 -77t-43 -105q0 -49 37 -97.5t92 -72.5q41 -20 113 -31.5t88 -13.5q84 -10 149.5 -24.5 t120.5 -43.5q95 -45 152 -132z" glyph-name="s" horiz-adv-x="1269" unicode="s"/><glyph d="M1184 1333v-172h-453v-1161h-174v1161h-453v172h1080z" glyph-name="t" horiz-adv-x="1288" unicode="t"/><glyph d="M893 28q-94 -40 -201 -40q-104 0 -199.5 40t-166.5 115q-74 74 -113 169.5t-39 201.5v819h170v-819q0 -72 26.5 -137.5t75.5 -114.5q109 -104 246 -104q70 0 133.5 27.5t112.5 76.5t75.5 114.5t26.5 137.5v819h170v-819q0 -106 -38.5 -201.5t-110.5 -169.5 q-74 -75 -168 -115z" glyph-name="u" horiz-adv-x="1384" unicode="u"/><glyph d="M698 389l422 944h189l-611 -1366l-608 1366h186z" glyph-name="v" horiz-adv-x="1402" unicode="v"/><glyph d="M1253 461l285 872h178l-444 -1366l-363 875l-364 -875l-449 1366h178l291 -874l344 827z" glyph-name="w" horiz-adv-x="1812" unicode="w"/><glyph d="M1210 1333l-450 -665l450 -668h-204l-349 516l-348 -516h-203l449 668l-449 665h203l348 -516l349 516h204z" glyph-name="x" horiz-adv-x="1316" unicode="x"/><glyph d="M737 637l437 696h204l-557 -876v-457h-170v457l-559 876h203z" glyph-name="y" horiz-adv-x="1470" unicode="y"/><glyph d="M1022 0h-862l604 1161h-582v172h865l-605 -1163h580v-170z" glyph-name="z" horiz-adv-x="1206" unicode="z"/><glyph d="M469 246q43 -49 113 -76v-178q-145 35 -236.5 134t-91.5 224v205l-104 119l104 117v202q0 125 92 224.5t236 132.5v-179q-70 -27 -113 -74.5t-43 -103.5v-213q0 -49 -45 -106q45 -59 45 -107v-217q0 -55 43 -104z" glyph-name="braceleft" horiz-adv-x="731" unicode="{"/><glyph d="M365 0h-172v1333h172v-1333z" glyph-name="bar" horiz-adv-x="555" unicode="|"/><glyph d="M264 246q43 49 43 104v217q0 51 45 107q-45 53 -45 106v213q0 55 -43 103.5t-114 74.5v179q143 -33 235 -132.5t92 -224.5v-202l107 -117l-107 -119v-205q0 -125 -91 -224t-236 -134v178q71 27 114 76z" glyph-name="braceright" horiz-adv-x="733" unicode="}"/><glyph d="M328.5 1186.5q-25.5 -25.5 -60.5 -25.5t-61.5 25.5t-26.5 60.5t26.5 60.5t61.5 25.5t60.5 -25.5t25.5 -60.5t-25.5 -60.5zM180 0v170l23 881h129l22 -881v-170h-174z" glyph-name="exclamdown" horiz-adv-x="534" unicode="¡"/><glyph d="M1095.5 79.5q-114.5 -63.5 -243.5 -79.5v-203h-170v203q-164 20 -298 115.5t-211 242t-77 316.5t78 315.5t211 240.5t297 116v206h170v-206q119 -14 226.5 -69.5t189.5 -146.5l-129 -114q-70 78 -167.5 122t-203.5 44q-135 0 -250 -69t-182.5 -185.5t-67.5 -253.5 q0 -139 67.5 -256t182.5 -185.5t250 -68.5q115 0 218.5 50t174.5 140l131 -106q-82 -105 -196.5 -168.5z" glyph-name="cent" horiz-adv-x="1388" unicode="¢"/><glyph d="M1022 170v-170h-850v170h10q74 0 139.5 37t103.5 93t38 112v180h-225v170h225v182q0 78 36 152.5t99 132.5q63 59 146 92t167 33h72v-170h-72q-74 0 -138 -37t-102 -92.5t-38 -110.5v-182h213v-170h-213v-180q0 -127 -92 -242h481z" glyph-name="sterling" horiz-adv-x="1193" unicode="£"/><glyph d="M684 715.5q-61 -29.5 -131 -29.5q-82 0 -150.5 40t-108.5 109.5t-40 153.5q0 82 40 151.5t108.5 109.5t150.5 40q66 0 124 -25.5t101 -72.5l-129 -115q-37 43 -96 43q-53 0 -91 -39t-38 -92q0 -55 38 -94t91 -39q31 0 57.5 12.5t42.5 36.5l135 -106q-43 -54 -104 -83.5z M767 625.5q-97 -56.5 -214 -56.5q-115 0 -213 56.5t-155.5 155t-57.5 212.5q0 115 57.5 213.5t155.5 155.5t213 57t213 -57t155.5 -155.5t57.5 -213.5q0 -117 -57.5 -214t-154.5 -153.5zM747.5 1328q-90.5 52 -194.5 52t-193.5 -52t-141.5 -140t-52 -195q0 -104 52 -194 t141.5 -142.5t193.5 -52.5t193.5 53.5t142.5 142.5t53 193q0 106 -52 194.5t-142.5 140.5z" glyph-name="copyright" horiz-adv-x="1107" unicode="©"/><glyph d="M844 375v-211l-694 504l694 499v-211l-404 -288zM1348 375v-211l-695 504l695 499v-211l-402 -288z" glyph-name="guillemotleft" horiz-adv-x="1497" unicode="«"/><glyph d="M549.5 882q-64.5 -38 -139.5 -38q-76 0 -140.5 38t-103.5 103.5t-39 140.5q0 76 39 141.5t103.5 103.5t140.5 38t140 -38t102 -103.5t38 -141.5t-38 -141t-102.5 -103zM487.5 1206.5q-32.5 32.5 -77.5 32.5t-77 -32.5t-32 -80.5q0 -45 32 -77.5t77 -32.5q47 0 78.5 32.5 t31.5 77.5q0 48 -32.5 80.5z" glyph-name="degree" horiz-adv-x="817" unicode="°"/><glyph d="M653 958v213l693 -503l-693 -502v211l404 291zM150 958v213l694 -503l-694 -502v211l401 291z" glyph-name="guillemotright" horiz-adv-x="1495" unicode="»"/><glyph d="M561 983v80h150v-80q0 -82 -22.5 -137t-54.5 -90t-83 -74l-49 -41q-78 -61 -120 -115.5t-42 -134.5q0 -63 39 -116.5t104.5 -85t143.5 -31.5q76 0 141.5 31.5t103 85t37.5 116.5h170q0 -82 -34.5 -156.5t-100.5 -132.5q-66 -55 -147.5 -84.5t-169.5 -29.5 q-90 0 -172 29.5t-146 84.5q-68 57 -103.5 131t-35.5 158q0 133 84 246q29 39 67.5 75t73.5 64q10 8 24.5 19.5t24.5 19.5t42 31.5t53.5 52.5t21.5 84zM686.5 1201.5q-24.5 -25.5 -59.5 -25.5t-60.5 25.5t-25.5 60.5t25.5 59.5t60.5 24.5t59.5 -25t24.5 -59 q0 -35 -24.5 -60.5z" glyph-name="questiondown" horiz-adv-x="1208" unicode="¿"/><glyph d="M649 1440l-233 215h192l174 -215h-133zM403 258l-118 -258h-189l625 1348l592 -1348h-187l-112 258h-611zM715 934l-234 -506h459z" glyph-name="Agrave" unicode="À"/><glyph d="M635 1440l174 213h192l-231 -213h-135zM403 258l-118 -258h-189l625 1348l592 -1348h-187l-112 258h-611zM715 934l-234 -506h459z" glyph-name="Aacute" unicode="Á"/><glyph d="M975 1440h-135l-138 125l-133 -125h-135l174 215l193 -2zM403 258l-118 -258h-189l625 1348l592 -1348h-187l-112 258h-611zM715 934l-234 -506h459z" glyph-name="Acircumflex" unicode="Â"/><glyph d="M938 1477q-68 -37 -135 -37q-84 0 -166 53q-39 29 -76 29q-33 0 -63 -19q-27 -12 -44 -30t-22 -25l-121 90q10 14 40 44t73 54q61 35 135 35q84 0 164 -55q43 -27 80 -27q29 0 61 17l70 57l119 -90q-6 -12 -39 -43q-33 -30 -76 -53zM403 258l-118 -258h-189l625 1348 l592 -1348h-187l-112 258h-611zM715 934l-234 -506h459z" glyph-name="Atilde" unicode="Ã"/><glyph d="M460 1585q26 25 60 25q35 0 60 -25t24 -59q0 -35 -24 -61q-25 -26 -60 -25q-35 0 -60 25q-26 26 -26 61q0 34 26 59zM847 1585q26 25 60 25q35 0 60 -25t24 -59q0 -35 -24 -61q-25 -26 -60 -25q-35 0 -60 25q-26 26 -26 61q0 34 26 59zM403 258l-118 -258h-189l625 1348 l592 -1348h-187l-112 258h-611zM715 934l-234 -506h459z" glyph-name="Adieresis" unicode="Ä"/><glyph d="M853 1500q-60 -60 -142 -60q-84 0 -144 60q-59 60 -59 142q0 84 59 144q59 59 144 59q82 0 142 -59t60 -144q0 -82 -60 -142zM749 1679q-15 16 -38 17q-20 0 -37 -17q-16 -16 -17 -37q0 -23 16 -37q15 -15 38 -16q23 0 38 16q15 15 15 37q0 21 -15 37zM403 258l-118 -258 h-189l625 1348l592 -1348h-187l-112 258h-611zM715 934l-234 -506h459z" glyph-name="Aring" unicode="Å"/><glyph d="M1702 1163h-680v-409h520v-172h-520v-412h680v-170h-852v283h-432l-133 -283h-189l617 1333h989v-170zM496 457h354v706h-27z" glyph-name="AE" horiz-adv-x="1873" unicode="Æ"/><glyph d="M1061 53.5q137 65.5 233 188.5l-133 106q-72 -90 -175 -140t-218 -50q-135 0 -251 68.5t-183.5 186t-67.5 255.5q0 137 67.5 254.5t183.5 186.5t251 69q106 0 203.5 -44t169.5 -122l127 112q-94 106 -225.5 165t-274.5 59q-182 0 -337 -91.5t-245 -248t-90 -340.5 t90 -341t245 -248t337 -91q156 0 293 65.5zM924 -340q-59 -51 -150 -51q-92 0 -151 51q-35 27 -54.5 62.5t-19.5 76.5h149q0 -14 22.5 -28.5t53.5 -14.5q29 0 50.5 14.5t21.5 28.5q0 16 -21.5 29.5t-50.5 13.5h-76v158h150v-18q45 -16 76 -41q35 -29 53 -66t18 -76 t-18 -75.5t-53 -63.5z" glyph-name="Ccedilla" horiz-adv-x="1390" unicode="Ç"/><glyph d="M543 1440l-234 215h193l174 -215h-133zM1026 0h-852v1333h852v-172h-682v-407h522v-172h-522v-412h682v-170z" glyph-name="Egrave" horiz-adv-x="1200" unicode="È"/><glyph d="M508 1440l174 213h192l-231 -213h-135zM1026 0h-852v1333h852v-172h-682v-407h522v-172h-522v-412h682v-170z" glyph-name="Eacute" horiz-adv-x="1200" unicode="É"/><glyph d="M860 1440h-135l-137 125l-133 -125h-136l175 215l192 -2zM1026 0h-852v1333h852v-172h-682v-407h522v-172h-522v-412h682v-170z" glyph-name="Ecircumflex" horiz-adv-x="1200" unicode="Ê"/><glyph d="M335 1585q26 25 60 25q35 0 60 -25t24 -59q0 -35 -24 -61q-25 -26 -60 -25q-35 0 -60 25q-26 26 -26 61q0 34 26 59zM722 1585q26 25 60 25q35 0 60 -25t24 -59q0 -35 -24 -61q-25 -26 -60 -25q-35 0 -60 25q-26 26 -26 61q0 34 26 59zM1026 0h-852v1333h852v-172h-682 v-407h522v-172h-522v-412h682v-170z" glyph-name="Edieresis" horiz-adv-x="1200" unicode="Ë"/><glyph d="M367 0h-170v1333h170v-1333zM209 1440l-232 215h191l176 -215h-135z" glyph-name="Igrave" horiz-adv-x="565" unicode="Ì"/><glyph d="M369 0h-170v1333h170v-1333zM215 1440l172 213h195l-232 -213h-135z" glyph-name="Iacute" horiz-adv-x="559" unicode="Í"/><glyph d="M369 0h-170v1333h170v-1333zM553 1440h-135l-135 125l-136 -125h-133l172 215l195 -2z" glyph-name="Icircumflex" horiz-adv-x="567" unicode="Î"/><glyph d="M373 0h-172v1333h172v-1333zM32.5 1585.5q24.5 24.5 59.5 24.5t60.5 -24.5t25.5 -59.5t-25.5 -60.5t-60.5 -25.5t-59.5 25.5t-24.5 60.5t24.5 59.5zM420.5 1585.5q25.5 24.5 60.5 24.5t59.5 -24.5t24.5 -59.5t-24.5 -60.5t-59.5 -25.5t-60.5 25.5t-25.5 60.5t25.5 59.5z " glyph-name="Idieresis" horiz-adv-x="573" unicode="Ï"/><glyph d="M1344.5 919.5q44.5 -118.5 44.5 -249.5q0 -133 -44.5 -253t-125.5 -212q-88 -100 -211 -152.5t-265 -52.5h-403v582h-166v170h166v581h403q139 0 263 -52t213 -151q81 -92 125.5 -210.5zM1000.5 242.5q107.5 70.5 163 185.5t55.5 242q0 98 -33 187t-96 159 q-131 147 -347 147h-231v-411h416v-170h-416v-410h231q150 0 257.5 70.5z" glyph-name="Eth" horiz-adv-x="1495" unicode="Ð"/><glyph d="M928 1477q-68 -37 -135 -37q-84 0 -166 53q-39 29 -76 29q-33 0 -64 -19q-27 -12 -44 -30t-21 -25l-121 90q10 14 40 44t73 54q61 35 135 35q84 0 164 -55q43 -27 80 -27q29 0 61 17l70 57l118 -90q-6 -12 -38 -43q-33 -30 -76 -53zM1212 -33l-864 940v-907h-172v1354 l866 -936v915h170v-1366z" glyph-name="Ntilde" horiz-adv-x="1386" unicode="Ñ"/><glyph d="M696 1440l-233 215h192l174 -215h-133zM1107 79q-155 -91 -337 -91q-184 0 -339 91t-245 248t-90 341t90 340t245 246q155 91 339 92q182 0 337 -92q155 -91 246 -246q91 -156 91 -340t-91 -341t-246 -248zM1023 1107q-116 69 -253 69t-253 -69t-183 -185 q-68 -117 -68 -254q0 -139 68 -256t183 -186q116 -69 253 -68q137 0 253 68q116 69 183 186q68 117 68 256q0 137 -68 254q-67 116 -183 185z" glyph-name="Ograve" horiz-adv-x="1540" unicode="Ò"/><glyph d="M672 1440l174 213h192l-231 -213h-135zM1107 79q-155 -91 -337 -91q-184 0 -339 91t-245 248t-90 341t90 340t245 246q155 91 339 92q182 0 337 -92q155 -91 246 -246q91 -156 91 -340t-91 -341t-246 -248zM1023 1107q-116 69 -253 69t-253 -69t-183 -185 q-68 -117 -68 -254q0 -139 68 -256t183 -186q116 -69 253 -68q137 0 253 68q116 69 183 186q68 117 68 256q0 137 -68 254q-67 116 -183 185z" glyph-name="Oacute" horiz-adv-x="1540" unicode="Ó"/><glyph d="M1020 1440h-135l-137 125l-134 -125h-135l174 215l193 -2zM1107 79q-155 -91 -337 -91q-184 0 -339 91t-245 248t-90 341t90 340t245 246q155 91 339 92q182 0 337 -92q155 -91 246 -246q91 -156 91 -340t-91 -341t-246 -248zM1023 1107q-116 69 -253 69t-253 -69 t-183 -185q-68 -117 -68 -254q0 -139 68 -256t183 -186q116 -69 253 -68q137 0 253 68q116 69 183 186q68 117 68 256q0 137 -68 254q-67 116 -183 185z" glyph-name="Ocircumflex" horiz-adv-x="1540" unicode="Ô"/><glyph d="M987 1477q-68 -37 -135 -37q-84 0 -166 53q-39 29 -76 29q-33 0 -63 -19q-27 -12 -44 -30t-22 -25l-121 90q10 14 40 44t73 54q61 35 135 35q84 0 164 -55q43 -27 80 -27q29 0 61 17l70 57l119 -90q-6 -12 -39 -43q-33 -30 -76 -53zM1107 79q-155 -91 -337 -91 q-184 0 -339 91t-245 248t-90 341t90 340t245 246q155 91 339 92q182 0 337 -92q155 -91 246 -246q91 -156 91 -340t-91 -341t-246 -248zM1023 1107q-116 69 -253 69t-253 -69t-183 -185q-68 -117 -68 -254q0 -139 68 -256t183 -186q116 -69 253 -68q137 0 253 68 q116 69 183 186q68 117 68 256q0 137 -68 254q-67 116 -183 185z" glyph-name="Otilde" horiz-adv-x="1540" unicode="Õ"/><glyph d="M505 1585q26 25 60 25q35 0 60 -25t24 -59q0 -35 -24 -61q-25 -26 -60 -25q-35 0 -60 25q-26 26 -26 61q0 34 26 59zM892 1585q26 25 60 25q35 0 60 -25t24 -59q0 -35 -24 -61q-25 -26 -60 -25q-35 0 -60 25q-26 26 -26 61q0 34 26 59zM1107 79q-155 -91 -337 -91 q-184 0 -339 91t-245 248t-90 341t90 340t245 246q155 91 339 92q182 0 337 -92q155 -91 246 -246q91 -156 91 -340t-91 -341t-246 -248zM1023 1107q-116 69 -253 69t-253 -69t-183 -185q-68 -117 -68 -254q0 -139 68 -256t183 -186q116 -69 253 -68q137 0 253 68 q116 69 183 186q68 117 68 256q0 137 -68 254q-67 116 -183 185z" glyph-name="Odieresis" horiz-adv-x="1540" unicode="Ö"/><glyph d="M784 872l-206 -204l204 -205l-120 -123l-205 207l-207 -207l-121 123l205 205l-207 204l123 123l207 -207l205 207z" glyph-name="multiply" horiz-adv-x="911" unicode="×"/><glyph d="M1375.5 970.5q68.5 -139.5 68.5 -296.5q0 -184 -91 -341t-246 -248t-337 -91q-137 0 -266 53l-27 -47h-198l79 135q-123 96 -192.5 236.5t-69.5 302.5q0 184 90 339.5t245 247t339 91.5q141 0 272 -58l23 39h199l-76 -127q119 -96 187.5 -235.5zM314 456.5 q48 -102.5 132 -173.5l508 864q-84 33 -184 33q-137 0 -253 -69t-183.5 -184.5t-67.5 -252.5q0 -115 48 -217.5zM1023 232.5q116 68.5 183.5 185.5t67.5 256q0 113 -46 212t-128 171l-506 -860q78 -33 176 -33q137 0 253 68.5z" glyph-name="Oslash" horiz-adv-x="1540" unicode="Ø"/><glyph d="M608 1466l-233 215h192l174 -215h-133zM893 28q-94 -40 -201 -40q-104 0 -199 40t-167 115q-74 74 -113 169t-39 202v819h170v-819q0 -72 27 -137q27 -66 75 -115q109 -104 246 -104q70 0 133 27q63 28 113 77q49 49 76 115t26 137v819h170v-819q0 -106 -39 -202 q-39 -95 -110 -169q-74 -75 -168 -115z" glyph-name="Ugrave" horiz-adv-x="1384" unicode="Ù"/><glyph d="M584 1440l174 213h192l-231 -213h-135zM893 28q-94 -40 -201 -40q-104 0 -199 40t-167 115q-74 74 -113 169t-39 202v819h170v-819q0 -72 27 -137q27 -66 75 -115q109 -104 246 -104q70 0 133 27q63 28 113 77q49 49 76 115t26 137v819h170v-819q0 -106 -39 -202 q-39 -95 -110 -169q-74 -75 -168 -115z" glyph-name="Uacute" horiz-adv-x="1384" unicode="Ú"/><glyph d="M940 1440h-135l-137 125l-133 -125h-136l174 215l193 -2zM893 28q-94 -40 -201 -40q-104 0 -199 40t-167 115q-74 74 -113 169t-39 202v819h170v-819q0 -72 27 -137q27 -66 75 -115q109 -104 246 -104q70 0 133 27q63 28 113 77q49 49 76 115t26 137v819h170v-819 q0 -106 -39 -202q-39 -95 -110 -169q-74 -75 -168 -115z" glyph-name="Ucircumflex" horiz-adv-x="1384" unicode="Û"/><glyph d="M419 1585q26 25 60 25q35 0 60 -25t24 -59q0 -35 -24 -61q-25 -26 -60 -25q-35 0 -60 25q-26 26 -26 61q0 34 26 59zM806 1585q26 25 60 25q35 0 60 -25t24 -59q0 -35 -24 -61q-25 -26 -60 -25q-35 0 -60 25q-26 26 -26 61q0 34 26 59zM893 28q-94 -40 -201 -40 q-104 0 -199 40t-167 115q-74 74 -113 169t-39 202v819h170v-819q0 -72 27 -137q27 -66 75 -115q109 -104 246 -104q70 0 133 27q63 28 113 77q49 49 76 115t26 137v819h170v-819q0 -106 -39 -202q-39 -95 -110 -169q-74 -75 -168 -115z" glyph-name="Udieresis" horiz-adv-x="1384" unicode="Ü"/><glyph d="M639 1440l174 213h193l-232 -213h-135zM737 637l437 696h204l-557 -876v-457h-170v457l-559 876h203z" glyph-name="Yacute" horiz-adv-x="1470" unicode="Ý"/><glyph d="M1133 393q0 -76 -33 -147.5t-94 -126.5q-66 -57 -150 -88t-178 -31h-141v170h141q86 0 150.5 31.5t99.5 83t35 108.5q0 53 -35 106.5t-101 82.5q-88 37 -217 36h-73v170h18q88 0 149.5 54.5t61.5 132.5t-61.5 132t-149.5 54q-86 0 -146.5 -54t-60.5 -132v-975h-174v975 q0 72 29.5 138.5t85.5 117.5q55 47 123.5 73.5t142.5 26.5q76 0 144.5 -25.5t123.5 -74.5q55 -51 85 -117.5t30 -138.5q0 -59 -21.5 -117.5t-60.5 -103.5q6 -2 41 -15q102 -47 160 -129q76 -94 76 -217z" glyph-name="germandbls" horiz-adv-x="1239" unicode="ß"/><glyph d="M649 1440l-233 215h192l174 -215h-133zM403 258l-118 -258h-189l625 1348l592 -1348h-187l-112 258h-611zM715 934l-234 -506h459z" glyph-name="agrave" unicode="à"/><glyph d="M635 1440l174 213h192l-231 -213h-135zM403 258l-118 -258h-189l625 1348l592 -1348h-187l-112 258h-611zM715 934l-234 -506h459z" glyph-name="aacute" unicode="á"/><glyph d="M975 1440h-135l-138 125l-133 -125h-135l174 215l193 -2zM403 258l-118 -258h-189l625 1348l592 -1348h-187l-112 258h-611zM715 934l-234 -506h459z" glyph-name="acircumflex" unicode="â"/><glyph d="M938 1477q-68 -37 -135 -37q-84 0 -166 53q-39 29 -76 29q-33 0 -63 -19q-27 -12 -44 -30t-22 -25l-121 90q10 14 40 44t73 54q61 35 135 35q84 0 164 -55q43 -27 80 -27q29 0 61 17l70 57l119 -90q-6 -12 -39 -43q-33 -30 -76 -53zM403 258l-118 -258h-189l625 1348 l592 -1348h-187l-112 258h-611zM715 934l-234 -506h459z" glyph-name="atilde" unicode="ã"/><glyph d="M460 1585q26 25 60 25q35 0 60 -25t24 -59q0 -35 -24 -61q-25 -26 -60 -25q-35 0 -60 25q-26 26 -26 61q0 34 26 59zM847 1585q26 25 60 25q35 0 60 -25t24 -59q0 -35 -24 -61q-25 -26 -60 -25q-35 0 -60 25q-26 26 -26 61q0 34 26 59zM403 258l-118 -258h-189l625 1348 l592 -1348h-187l-112 258h-611zM715 934l-234 -506h459z" glyph-name="adieresis" unicode="ä"/><glyph d="M853 1500q-60 -60 -142 -60q-84 0 -144 60q-59 60 -59 142q0 84 59 144q59 59 144 59q82 0 142 -59t60 -144q0 -82 -60 -142zM749 1679q-15 16 -38 17q-20 0 -37 -17q-16 -16 -17 -37q0 -23 16 -37q15 -15 38 -16q23 0 38 16q15 15 15 37q0 21 -15 37zM403 258l-118 -258 h-189l625 1348l592 -1348h-187l-112 258h-611zM715 934l-234 -506h459z" glyph-name="aring" unicode="å"/><glyph d="M1702 1163h-680v-409h520v-172h-520v-412h680v-170h-852v283h-432l-133 -283h-189l617 1333h989v-170zM496 457h354v706h-27z" glyph-name="ae" horiz-adv-x="1873" unicode="æ"/><glyph d="M1061 53.5q137 65.5 233 188.5l-133 106q-72 -90 -175 -140t-218 -50q-135 0 -251 68.5t-183.5 186t-67.5 255.5q0 137 67.5 254.5t183.5 186.5t251 69q106 0 203.5 -44t169.5 -122l127 112q-94 106 -225.5 165t-274.5 59q-182 0 -337 -91.5t-245 -248t-90 -340.5 t90 -341t245 -248t337 -91q156 0 293 65.5zM924 -340q-59 -51 -150 -51q-92 0 -151 51q-35 27 -54.5 62.5t-19.5 76.5h149q0 -14 22.5 -28.5t53.5 -14.5q29 0 50.5 14.5t21.5 28.5q0 16 -21.5 29.5t-50.5 13.5h-76v158h150v-18q45 -16 76 -41q35 -29 53 -66t18 -76 t-18 -75.5t-53 -63.5z" glyph-name="ccedilla" horiz-adv-x="1390" unicode="ç"/><glyph d="M543 1440l-234 215h193l174 -215h-133zM1026 0h-852v1333h852v-172h-682v-407h522v-172h-522v-412h682v-170z" glyph-name="egrave" horiz-adv-x="1200" unicode="è"/><glyph d="M508 1440l174 213h192l-231 -213h-135zM1026 0h-852v1333h852v-172h-682v-407h522v-172h-522v-412h682v-170z" glyph-name="eacute" horiz-adv-x="1200" unicode="é"/><glyph d="M860 1440h-135l-137 125l-133 -125h-136l175 215l192 -2zM1026 0h-852v1333h852v-172h-682v-407h522v-172h-522v-412h682v-170z" glyph-name="ecircumflex" horiz-adv-x="1200" unicode="ê"/><glyph d="M335 1585q26 25 60 25q35 0 60 -25t24 -59q0 -35 -24 -61q-25 -26 -60 -25q-35 0 -60 25q-26 26 -26 61q0 34 26 59zM722 1585q26 25 60 25q35 0 60 -25t24 -59q0 -35 -24 -61q-25 -26 -60 -25q-35 0 -60 25q-26 26 -26 61q0 34 26 59zM1026 0h-852v1333h852v-172h-682 v-407h522v-172h-522v-412h682v-170z" glyph-name="edieresis" horiz-adv-x="1200" unicode="ë"/><glyph d="M367 0h-170v1333h170v-1333zM209 1440l-232 215h191l176 -215h-135z" glyph-name="igrave" horiz-adv-x="565" unicode="ì"/><glyph d="M369 0h-170v1333h170v-1333zM215 1440l172 213h195l-232 -213h-135z" glyph-name="iacute" horiz-adv-x="559" unicode="í"/><glyph d="M369 0h-170v1333h170v-1333zM553 1440h-135l-135 125l-136 -125h-133l172 215l195 -2z" glyph-name="icircumflex" horiz-adv-x="567" unicode="î"/><glyph d="M373 0h-172v1333h172v-1333zM32.5 1585.5q24.5 24.5 59.5 24.5t60.5 -24.5t25.5 -59.5t-25.5 -60.5t-60.5 -25.5t-59.5 25.5t-24.5 60.5t24.5 59.5zM420.5 1585.5q25.5 24.5 60.5 24.5t59.5 -24.5t24.5 -59.5t-24.5 -60.5t-59.5 -25.5t-60.5 25.5t-25.5 60.5t25.5 59.5z " glyph-name="idieresis" horiz-adv-x="573" unicode="ï"/><glyph d="M928 1477q-68 -37 -135 -37q-84 0 -166 53q-39 29 -76 29q-33 0 -64 -19q-27 -12 -44 -30t-21 -25l-121 90q10 14 40 44t73 54q61 35 135 35q84 0 164 -55q43 -27 80 -27q29 0 61 17l70 57l118 -90q-6 -12 -38 -43q-33 -30 -76 -53zM1212 -33l-864 940v-907h-172v1354 l866 -936v915h170v-1366z" glyph-name="ntilde" horiz-adv-x="1386" unicode="ñ"/><glyph d="M696 1440l-233 215h192l174 -215h-133zM1107 79q-155 -91 -337 -91q-184 0 -339 91t-245 248t-90 341t90 340t245 246q155 91 339 92q182 0 337 -92q155 -91 246 -246q91 -156 91 -340t-91 -341t-246 -248zM1023 1107q-116 69 -253 69t-253 -69t-183 -185 q-68 -117 -68 -254q0 -139 68 -256t183 -186q116 -69 253 -68q137 0 253 68q116 69 183 186q68 117 68 256q0 137 -68 254q-67 116 -183 185z" glyph-name="ograve" horiz-adv-x="1540" unicode="ò"/><glyph d="M672 1440l174 213h192l-231 -213h-135zM1107 79q-155 -91 -337 -91q-184 0 -339 91t-245 248t-90 341t90 340t245 246q155 91 339 92q182 0 337 -92q155 -91 246 -246q91 -156 91 -340t-91 -341t-246 -248zM1023 1107q-116 69 -253 69t-253 -69t-183 -185 q-68 -117 -68 -254q0 -139 68 -256t183 -186q116 -69 253 -68q137 0 253 68q116 69 183 186q68 117 68 256q0 137 -68 254q-67 116 -183 185z" glyph-name="oacute" horiz-adv-x="1540" unicode="ó"/><glyph d="M1020 1440h-135l-137 125l-134 -125h-135l174 215l193 -2zM1107 79q-155 -91 -337 -91q-184 0 -339 91t-245 248t-90 341t90 340t245 246q155 91 339 92q182 0 337 -92q155 -91 246 -246q91 -156 91 -340t-91 -341t-246 -248zM1023 1107q-116 69 -253 69t-253 -69 t-183 -185q-68 -117 -68 -254q0 -139 68 -256t183 -186q116 -69 253 -68q137 0 253 68q116 69 183 186q68 117 68 256q0 137 -68 254q-67 116 -183 185z" glyph-name="ocircumflex" horiz-adv-x="1540" unicode="ô"/><glyph d="M987 1477q-68 -37 -135 -37q-84 0 -166 53q-39 29 -76 29q-33 0 -63 -19q-27 -12 -44 -30t-22 -25l-121 90q10 14 40 44t73 54q61 35 135 35q84 0 164 -55q43 -27 80 -27q29 0 61 17l70 57l119 -90q-6 -12 -39 -43q-33 -30 -76 -53zM1107 79q-155 -91 -337 -91 q-184 0 -339 91t-245 248t-90 341t90 340t245 246q155 91 339 92q182 0 337 -92q155 -91 246 -246q91 -156 91 -340t-91 -341t-246 -248zM1023 1107q-116 69 -253 69t-253 -69t-183 -185q-68 -117 -68 -254q0 -139 68 -256t183 -186q116 -69 253 -68q137 0 253 68 q116 69 183 186q68 117 68 256q0 137 -68 254q-67 116 -183 185z" glyph-name="otilde" horiz-adv-x="1540" unicode="õ"/><glyph d="M505 1585q26 25 60 25q35 0 60 -25t24 -59q0 -35 -24 -61q-25 -26 -60 -25q-35 0 -60 25q-26 26 -26 61q0 34 26 59zM892 1585q26 25 60 25q35 0 60 -25t24 -59q0 -35 -24 -61q-25 -26 -60 -25q-35 0 -60 25q-26 26 -26 61q0 34 26 59zM1107 79q-155 -91 -337 -91 q-184 0 -339 91t-245 248t-90 341t90 340t245 246q155 91 339 92q182 0 337 -92q155 -91 246 -246q91 -156 91 -340t-91 -341t-246 -248zM1023 1107q-116 69 -253 69t-253 -69t-183 -185q-68 -117 -68 -254q0 -139 68 -256t183 -186q116 -69 253 -68q137 0 253 68 q116 69 183 186q68 117 68 256q0 137 -68 254q-67 116 -183 185z" glyph-name="odieresis" horiz-adv-x="1540" unicode="ö"/><glyph d="M1375.5 970.5q68.5 -139.5 68.5 -296.5q0 -184 -91 -341t-246 -248t-337 -91q-137 0 -266 53l-27 -47h-198l79 135q-123 96 -192.5 236.5t-69.5 302.5q0 184 90 339.5t245 247t339 91.5q141 0 272 -58l23 39h199l-76 -127q119 -96 187.5 -235.5zM314 456.5 q48 -102.5 132 -173.5l508 864q-84 33 -184 33q-137 0 -253 -69t-183.5 -184.5t-67.5 -252.5q0 -115 48 -217.5zM1023 232.5q116 68.5 183.5 185.5t67.5 256q0 113 -46 212t-128 171l-506 -860q78 -33 176 -33q137 0 253 68.5z" glyph-name="oslash" horiz-adv-x="1540" unicode="ø"/><glyph d="M608 1466l-233 215h192l174 -215h-133zM893 28q-94 -40 -201 -40q-104 0 -199 40t-167 115q-74 74 -113 169t-39 202v819h170v-819q0 -72 27 -137q27 -66 75 -115q109 -104 246 -104q70 0 133 27q63 28 113 77q49 49 76 115t26 137v819h170v-819q0 -106 -39 -202 q-39 -95 -110 -169q-74 -75 -168 -115z" glyph-name="ugrave" horiz-adv-x="1384" unicode="ù"/><glyph d="M584 1440l174 213h192l-231 -213h-135zM893 28q-94 -40 -201 -40q-104 0 -199 40t-167 115q-74 74 -113 169t-39 202v819h170v-819q0 -72 27 -137q27 -66 75 -115q109 -104 246 -104q70 0 133 27q63 28 113 77q49 49 76 115t26 137v819h170v-819q0 -106 -39 -202 q-39 -95 -110 -169q-74 -75 -168 -115z" glyph-name="uacute" horiz-adv-x="1384" unicode="ú"/><glyph d="M940 1440h-135l-137 125l-133 -125h-136l174 215l193 -2zM893 28q-94 -40 -201 -40q-104 0 -199 40t-167 115q-74 74 -113 169t-39 202v819h170v-819q0 -72 27 -137q27 -66 75 -115q109 -104 246 -104q70 0 133 27q63 28 113 77q49 49 76 115t26 137v819h170v-819 q0 -106 -39 -202q-39 -95 -110 -169q-74 -75 -168 -115z" glyph-name="ucircumflex" horiz-adv-x="1384" unicode="û"/><glyph d="M419 1585q26 25 60 25q35 0 60 -25t24 -59q0 -35 -24 -61q-25 -26 -60 -25q-35 0 -60 25q-26 26 -26 61q0 34 26 59zM806 1585q26 25 60 25q35 0 60 -25t24 -59q0 -35 -24 -61q-25 -26 -60 -25q-35 0 -60 25q-26 26 -26 61q0 34 26 59zM893 28q-94 -40 -201 -40 q-104 0 -199 40t-167 115q-74 74 -113 169t-39 202v819h170v-819q0 -72 27 -137q27 -66 75 -115q109 -104 246 -104q70 0 133 27q63 28 113 77q49 49 76 115t26 137v819h170v-819q0 -106 -39 -202q-39 -95 -110 -169q-74 -75 -168 -115z" glyph-name="udieresis" horiz-adv-x="1384" unicode="ü"/><glyph d="M639 1440l174 213h193l-232 -213h-135zM737 637l437 696h204l-557 -876v-457h-170v457l-559 876h203z" glyph-name="yacute" horiz-adv-x="1470" unicode="ý"/><glyph d="M482 1585q26 25 61 25t59 -25q25 -25 25 -59q0 -35 -25 -61t-59 -25q-35 0 -61 25q-26 26 -25 61q-1 34 25 59zM869 1585q26 25 61 25t59 -25q25 -25 25 -59q0 -35 -25 -61t-59 -25q-35 0 -61 25q-26 26 -25 61q-1 34 25 59zM737 637l437 696h204l-557 -876v-457h-170 v457l-559 876h203z" glyph-name="ydieresis" horiz-adv-x="1470" unicode="ÿ"/><glyph d="M1348 1163v-409h522v-172h-522v-412h682v-170h-852v127q-86 -66 -190.5 -101.5t-217.5 -35.5q-182 0 -338 91t-246 247.5t-90 341.5q0 184 90 339.5t245 247t339 91.5q113 0 217.5 -36t190.5 -102v123h852v-170h-682zM999.5 216q106.5 56 178.5 155v596 q-70 98 -176.5 154.5t-231.5 56.5q-137 0 -253 -69t-183.5 -185.5t-67.5 -253.5q0 -139 67.5 -256t183.5 -185.5t253 -68.5q123 0 229.5 56z" glyph-name="OE" horiz-adv-x="2201" unicode="Œ"/><glyph d="M1348 1163v-409h522v-172h-522v-412h682v-170h-852v127q-86 -66 -190.5 -101.5t-217.5 -35.5q-182 0 -338 91t-246 247.5t-90 341.5q0 184 90 339.5t245 247t339 91.5q113 0 217.5 -36t190.5 -102v123h852v-170h-682zM999.5 216q106.5 56 178.5 155v596 q-70 98 -176.5 154.5t-231.5 56.5q-137 0 -253 -69t-183.5 -185.5t-67.5 -253.5q0 -139 67.5 -256t183.5 -185.5t253 -68.5q123 0 229.5 56z" glyph-name="oe" horiz-adv-x="2201" unicode="œ"/><glyph d="M1157 1440h-135l-137 125l-133 -125h-136l175 215l192 -2zM1253 461l285 872h178l-444 -1366l-363 875l-364 -875l-449 1366h178l291 -874l344 827z" glyph-name="Wcircumflex" horiz-adv-x="1812" unicode="Ŵ"/><glyph d="M1157 1440h-135l-137 125l-133 -125h-136l175 215l192 -2zM1253 461l285 872h178l-444 -1366l-363 875l-364 -875l-449 1366h178l291 -874l344 827z" glyph-name="wcircumflex" horiz-adv-x="1812" unicode="ŵ"/><glyph d="M991 1440h-135l-137 125l-133 -125h-135l174 215l192 -2zM737 637l437 696h204l-557 -876v-457h-170v457l-559 876h203z" glyph-name="Ycircumflex" horiz-adv-x="1470" unicode="Ŷ"/><glyph d="M991 1440h-135l-137 125l-133 -125h-135l174 215l192 -2zM737 637l437 696h204l-557 -876v-457h-170v457l-559 876h203z" glyph-name="ycircumflex" horiz-adv-x="1470" unicode="ŷ"/><glyph d="M482 1585q26 25 61 25t59 -25q25 -25 25 -59q0 -35 -25 -61t-59 -25q-35 0 -61 25q-26 26 -25 61q-1 34 25 59zM869 1585q26 25 61 25t59 -25q25 -25 25 -59q0 -35 -25 -61t-59 -25q-35 0 -61 25q-26 26 -25 61q-1 34 25 59zM737 637l437 696h204l-557 -876v-457h-170 v457l-559 876h203z" glyph-name="Ydieresis" horiz-adv-x="1470" unicode="Ÿ"/><glyph d="M-156 1440l-233 215h192l174 -215h-133z" glyph-name="gravecomb" horiz-adv-x="0" unicode="̀"/><glyph d="M-389 1440l174 213h192l-231 -213h-135z" glyph-name="acutecomb" horiz-adv-x="0" unicode="́"/><glyph d="M-20 1440h-136l-137 125l-133 -125h-135l174 215l192 -2z" glyph-name="uni0302" horiz-adv-x="0" unicode="̂"/><glyph d="M-475 1477q-68 -37 -135 -37q-84 0 -166 53q-39 29 -76 29q-33 0 -63 -19q-27 -12 -44.5 -30.5t-21.5 -24.5l-121 90q10 14 40 44t73 54q61 35 135 35q84 0 164 -55q43 -27 80 -27q29 0 61 17l70 57l119 -90q-6 -12 -39 -42.5t-76 -53.5z" glyph-name="tildecomb" horiz-adv-x="0" unicode="̃"/><glyph d="M-167 1585.5q26 24.5 61 24.5t60.5 -24.5t25.5 -59.5t-26 -60.5t-60 -25.5q-35 0 -61 25.5t-26 60.5t26 59.5z" glyph-name="uni0307" horiz-adv-x="0" unicode="̇"/><glyph d="M-531.5 1585.5q25.5 24.5 60.5 24.5t59.5 -24.5t24.5 -59.5t-24.5 -60.5t-59.5 -25.5t-60.5 25.5t-25.5 60.5t25.5 59.5zM-144.5 1585.5q25.5 24.5 60.5 24.5t59.5 -24.5t24.5 -59.5t-24.5 -60.5t-59.5 -25.5t-60.5 25.5t-25.5 60.5t25.5 59.5z" glyph-name="uni0308" horiz-adv-x="0" unicode="̈"/><glyph d="M-80.5 1500.5q-60.5 -60.5 -142.5 -60.5q-84 0 -143.5 60.5t-59.5 141.5q0 84 59.5 143.5t143.5 59.5q82 0 142.5 -59.5t60.5 -143.5q0 -81 -60.5 -141.5zM-185.5 1679.5q-15.5 16.5 -37.5 16.5q-20 0 -36.5 -16.5t-16.5 -37.5q0 -23 15 -38t38 -15t38 15.5t15 37.5 q0 21 -15.5 37.5z" glyph-name="uni030A" horiz-adv-x="0" unicode="̊"/><glyph d="M-348 -340q-59 -51 -150 -51q-92 0 -151 51q-35 27 -54.5 62.5t-19.5 76.5h150q0 -14 22.5 -28.5t52.5 -14.5q29 0 50.5 14.5t21.5 28.5q0 16 -21.5 29.5t-50.5 13.5h-75v158h149v-18q45 -16 76 -41q35 -29 53.5 -66t18.5 -76t-18.5 -75.5t-53.5 -63.5z" glyph-name="uni0327" horiz-adv-x="0" unicode="̧"/><glyph d="M-502 584h-755v170h755v-170z" glyph-name="uni0335" horiz-adv-x="0" unicode="̵"/><glyph d="M-895 0l786 1333h199l-784 -1333h-201z" glyph-name="uni0338" horiz-adv-x="0" unicode="̸"/><glyph d="M827 1440l-233 215h192l175 -215h-134zM1253 461l285 872h178l-444 -1366l-363 875l-364 -875l-449 1366h178l291 -874l344 827z" glyph-name="Wgrave" horiz-adv-x="1812" unicode="Ẁ"/><glyph d="M827 1440l-233 215h192l175 -215h-134zM1253 461l285 872h178l-444 -1366l-363 875l-364 -875l-449 1366h178l291 -874l344 827z" glyph-name="wgrave" horiz-adv-x="1812" unicode="ẁ"/><glyph d="M815 1440l174 213h193l-232 -213h-135zM1253 461l285 872h178l-444 -1366l-363 875l-364 -875l-449 1366h178l291 -874l344 827z" glyph-name="Wacute" horiz-adv-x="1812" unicode="Ẃ"/><glyph d="M815 1440l174 213h193l-232 -213h-135zM1253 461l285 872h178l-444 -1366l-363 875l-364 -875l-449 1366h178l291 -874l344 827z" glyph-name="wacute" horiz-adv-x="1812" unicode="ẃ"/><glyph d="M632 1585q26 25 60 25q35 0 60 -25t24 -59q0 -35 -24 -61q-25 -26 -60 -25q-35 0 -60 25q-26 26 -26 61q0 34 26 59zM1019 1585q26 25 60 25q35 0 60 -25t24 -59q0 -35 -24 -61q-25 -26 -60 -25q-35 0 -60 25q-26 26 -26 61q0 34 26 59zM1253 461l285 872h178l-444 -1366 l-363 875l-364 -875l-449 1366h178l291 -874l344 827z" glyph-name="Wdieresis" horiz-adv-x="1812" unicode="Ẅ"/><glyph d="M632 1585q26 25 60 25q35 0 60 -25t24 -59q0 -35 -24 -61q-25 -26 -60 -25q-35 0 -60 25q-26 26 -26 61q0 34 26 59zM1019 1585q26 25 60 25q35 0 60 -25t24 -59q0 -35 -24 -61q-25 -26 -60 -25q-35 0 -60 25q-26 26 -26 61q0 34 26 59zM1253 461l285 872h178l-444 -1366 l-363 875l-364 -875l-449 1366h178l291 -874l344 827z" glyph-name="wdieresis" horiz-adv-x="1812" unicode="ẅ"/><glyph d="M666 1440l-234 215h193l174 -215h-133zM737 637l437 696h204l-557 -876v-457h-170v457l-559 876h203z" glyph-name="Ygrave" horiz-adv-x="1470" unicode="Ỳ"/><glyph d="M666 1440l-234 215h193l174 -215h-133zM737 637l437 696h204l-557 -876v-457h-170v457l-559 876h203z" glyph-name="ygrave" horiz-adv-x="1470" unicode="ỳ"/><glyph d="M883 584h-756v170h756v-170z" glyph-name="endash" horiz-adv-x="1009" unicode="–"/><glyph d="M150 1098l81 235h142l-121 -235h-102z" glyph-name="quoteleft" horiz-adv-x="499" unicode="‘"/><glyph d="M150 1098l81 235h142l-121 -235h-102z" glyph-name="quoteright" horiz-adv-x="499" unicode="’"/><glyph d="M117 -119l84 236h139l-121 -236h-102z" glyph-name="quotesinglbase" horiz-adv-x="489" unicode="‚"/><glyph d="M440 1098l82 235h142l-123 -235h-101zM160 1098l82 235h139l-121 -235h-100z" glyph-name="quotedblleft" horiz-adv-x="823" unicode="“"/><glyph d="M440 1098l82 235h142l-123 -235h-101zM160 1098l82 235h139l-121 -235h-100z" glyph-name="quotedblright" horiz-adv-x="823" unicode="”"/><glyph d="M117 -119l84 236h139l-121 -236h-102zM117 -119h102l121 236h-139z" glyph-name="quotedblbase" horiz-adv-x="489" unicode="„"/><glyph d="M174.5 25.5q-24.5 25.5 -24.5 60.5t25.5 59.5t57.5 24.5q35 0 60.5 -25.5t25.5 -58.5q0 -35 -25.5 -60.5t-60.5 -25.5q-34 0 -58.5 25.5zM515 25.5q-26 25.5 -26 60.5t26 59.5t60 24.5q35 0 59.5 -24.5t24.5 -59.5t-24.5 -60.5t-59.5 -25.5q-34 0 -60 25.5zM856 25.5 q-25 25.5 -25 60.5t25 59.5t59 24.5q33 0 59.5 -25.5t26.5 -58.5q0 -35 -25.5 -60.5t-60.5 -25.5q-34 0 -59 25.5z" glyph-name="ellipsis" horiz-adv-x="1150" unicode="…"/><glyph d="M842 375v-211l-692 504l692 499v-211l-404 -288z" glyph-name="guilsinglleft" horiz-adv-x="991" unicode="‹"/><glyph d="M150 958v211l694 -501l-694 -502v211l401 291z" glyph-name="guilsinglright" horiz-adv-x="993" unicode="›"/><glyph d="M127 0l786 1333h199l-784 -1333h-201z" glyph-name="fraction" horiz-adv-x="1239" unicode="⁄"/><glyph d="M677 1100q-120 -76 -185 -201h432v-170h-484q-4 -41 -4 -61q0 -37 6 -78h482v-170h-424q66 -119 183.5 -190.5t256.5 -71.5h182v-170h-182q-213 0 -384 119.5t-245 312.5h-215v170h174q-4 53 -4 78q0 41 2 61h-172v170h211q72 199 245 323t388 124h182v-170h-182 q-143 0 -263 -76z" glyph-name="Euro" horiz-adv-x="1294" unicode="€"/><glyph glyph-name="trademark" horiz-adv-x="1277" unicode="™"/><glyph d="M883 584h-756v170h756v-170z" glyph-name="minus" horiz-adv-x="1009" unicode="−"/><glyph d="M721 1348l596 -1348h-189l-411 934l-432 -934h-189z" glyph-name="glyph203" horiz-adv-x="1413"/><glyph d="M721 1348l596 -1348h-189l-411 934l-432 -934h-189z" glyph-name="glyph204" horiz-adv-x="1413"/></font>
</defs>
</svg>
