<?xml version="1.0" standalone="no"?>
<!DOCTYPE svg PUBLIC "-//W3C//DTD SVG 1.1//EN" "http://www.w3.org/Graphics/SVG/1.1/DTD/svg11.dtd">
<svg xmlns="http://www.w3.org/2000/svg"><metadata>This SVG WebFont was generated by YouWorkForThem.
Ellen Luff</metadata><defs><font horiz-adv-x="1406" id="ywftsvg"><font-face ascent="1638" bbox="-1370 -410 2064 1845" cap-height="1333" descent="-410" font-family="" font-stretch="normal" font-weight="600" panose-1="0 0 7 0 0 0 0 0 0 0" underline-position="0" underline-thickness="0" unicode-range="U+0020-2212" units-per-em="2048" x-height="1333"/><missing-glyph d="M756 1434v-1844h-584v1844h584zM614 176h-307v-209h307v209zM553 117v-88h-184v88h184zM614 496h-184v-103h62v41h61v-86h-184v148h-62v-209h307v209zM614 721h-61v-123h-246v-61h307v184zM614 831h-307v-61h123v-68h-123v-61h185v129h122v61zM430 1010v-66h-61v66h61z M492 1073h-185v-192h307v63h-122v129zM614 1311h-305v-62h121v-67h-123v-62h307v62h-122v67h122v62zM614 -74h-307v-61h129l-129 -86v-62h307v62h-188l129 86h59v61z" horiz-adv-x="921"/><glyph d="M756 1434v-1844h-584v1844h584zM614 176h-307v-209h307v209zM553 117v-88h-184v88h184zM614 496h-184v-103h62v41h61v-86h-184v148h-62v-209h307v209zM614 721h-61v-123h-246v-61h307v184zM614 831h-307v-61h123v-68h-123v-61h185v129h122v61zM430 1010v-66h-61v66h61z M492 1073h-185v-192h307v63h-122v129zM614 1311h-305v-62h121v-67h-123v-62h307v62h-122v67h122v62zM614 -74h-307v-61h129l-129 -86v-62h307v62h-188l129 86h59v61z" glyph-name=".notdef" horiz-adv-x="921"/><glyph glyph-name="glyph1" horiz-adv-x="0"/><glyph glyph-name="glyph2" horiz-adv-x="682"/><glyph glyph-name="space" horiz-adv-x="638" unicode=" "/><glyph d="M9.5 147.5q29.5 24.5 64.5 24.5t55.5 -25.5t13.5 -60.5q-6 -35 -36.5 -60.5t-65.5 -25.5t-55.5 25.5t-14.5 60.5q9 37 38.5 61.5zM385 1333l-33 -170l-192 -880h-129l149 880l35 170h170z" glyph-name="exclam" horiz-adv-x="532" unicode="!"/><glyph d="M428 1098l127 235h143l-170 -235h-100zM147 1098l127 235h142l-168 -235h-101z" glyph-name="quotedbl" horiz-adv-x="823" unicode="&quot;"/><glyph d="M1477 866l-299 2l-136 -403h297l-55 -170l-297 2l-98 -297h-172l98 297h-405l-101 -297h-170l97 297h-297l55 168h301l133 403h-299l59 168h297l101 297h170l-101 -297h410l98 297h170l-98 -297h299zM870 465l138 403h-410l-133 -403h405z" glyph-name="numbersign" horiz-adv-x="1662" unicode="#"/><glyph d="M899 537q23 -47 23 -111q0 -84 -39 -164q-68 -139 -219 -213q-88 -41 -195 -53l-41 -201h-170l41 205q-201 31 -340 182l141 127q125 -145 338 -145q129 0 195.5 48t93.5 99q23 45 23 82q0 53 -38 94t-110 64l-248 78q-76 25 -131 70.5t-80 105.5q-25 53 -24 113 q0 80 43 161q68 141 217 213q84 41 182 51l39 207h170l-39 -209q213 -25 352 -182l-141 -127q-127 145 -340 146q-127 0 -197.5 -50.5t-89.5 -97.5q-23 -45 -22 -84q0 -51 37 -91t106 -64l250 -78q160 -49 213 -176z" glyph-name="dollar" horiz-adv-x="1232" unicode="$"/><glyph d="M1111 6q-73 -39 -148 -39q-102 0 -167 65.5t-65 164.5q0 29 6 55q14 76 64.5 141.5t123 103.5t148.5 38q100 0 166 -64.5t66 -163.5q0 -27 -7 -55q-14 -76 -64 -141.5t-123 -104.5zM1103.5 337.5q-24.5 24.5 -63.5 24.5q-47 0 -84.5 -31.5t-48.5 -78.5q-2 -8 -2 -23 q0 -39 26.5 -64.5t65.5 -25.5q45 0 82 33t47 80q2 8 2 22q0 39 -24.5 63.5zM509 839q-73 -38 -149 -38q-102 0 -166.5 64.5t-64.5 162.5q0 29 6 55q14 76 64.5 141.5t123 103.5t148.5 38q102 0 166.5 -64.5t64.5 -162.5q0 -27 -6 -56q-14 -78 -64 -142t-123 -102z M502.5 1168.5q-25.5 25.5 -66.5 25.5q-47 0 -85 -32t-46 -79q-2 -8 -2 -24q0 -37 25.5 -62.5t64.5 -25.5q45 0 84 32.5t49 79.5q2 8 2 21q0 39 -25.5 64.5zM96 0l1043 1333h198l-1042 -1333h-199z" glyph-name="percent" horiz-adv-x="1626" unicode="%"/><glyph d="M1096 0h-240l-102 125q-203 -137 -344 -137q-111 0 -197 41t-134 111.5t-48 158.5q0 31 6 63q31 168 182 273q12 8 39 24.5t53 28.5q-82 100 -82 232q0 33 7 69q16 72 57 137.5t102 114.5q59 49 133 74.5t150 25.5q152 0 237 -100q70 -76 70 -184q0 -23 -8 -68 q-12 -70 -61.5 -135.5t-129.5 -118.5l-98 123q51 31 83 65.5t36 65.5q4 25 4 35q0 63 -47 105t-121 42q-84 0 -151.5 -53t-83.5 -129q-4 -14 -5 -43q0 -76 56 -141zM539.5 183.5q52.5 23.5 117.5 64.5l-247 313q-96 -41 -142.5 -85t-60.5 -114q-2 -10 -2 -30 q0 -74 66.5 -123t170.5 -49q45 0 97.5 23.5zM1194 432q-31 -18 -53 -37l-60 -41l-92 123l33 25q70 49 78 53z" glyph-name="ampersand" horiz-adv-x="1505" unicode="&amp;"/><glyph d="M137 1098l129 235h142l-170 -235h-101z" glyph-name="quotesingle" horiz-adv-x="499" unicode="'"/><glyph d="M170 369q0 -68 49 -127.5t131 -77.5l-35 -172q-68 8 -128 39.5t-105 81.5q-88 104 -88 227q0 31 6 57q6 27 15.5 77t25.5 128l63 332q14 76 65.5 150.5t127.5 134.5q63 49 136 80.5t145 39.5l-33 -172q-96 -18 -174 -89.5t-95 -143.5q-20 -111 -50.5 -267.5t-53.5 -269.5 q-2 -8 -2 -28z" glyph-name="parenleft" horiz-adv-x="692" unicode="("/><glyph d="M131 256q78 72 92 145q88 451 103 533q2 10 2 31q0 68 -48.5 127t-127.5 77l32 172q68 -10 128.5 -40.5t105.5 -79.5q88 -100 88 -222q0 -20 -8 -65q-14 -82 -103 -533q-16 -78 -65 -152.5t-127 -135.5q-133 -102 -281 -121l33 174q98 18 176 90z" glyph-name="parenright" horiz-adv-x="692" unicode=")"/><glyph d="M219 629l-115 100l207 225l-250 88l86 162l246 -86l56 279h174l-56 -279l283 86l18 -162l-282 -88l123 -225l-160 -100l-119 225z" glyph-name="asterisk" horiz-adv-x="976" unicode="*"/><glyph d="M823 754l-32 -170h-293l-56 -293h-170l56 293h-291l33 170h292l58 293h170l-58 -293h291z" glyph-name="plus" horiz-adv-x="1052" unicode="+"/><glyph d="M-131 -119l129 236h141l-170 -236h-100z" glyph-name="comma" horiz-adv-x="489" unicode=","/><glyph d="M791 584h-754l33 170h753z" glyph-name="hyphen" horiz-adv-x="1052" unicode="-"/><glyph d="M-46.5 25.5q-19.5 25.5 -12.5 60.5q6 35 36.5 59.5t65.5 24.5q33 0 53.5 -24.5t14.5 -59.5t-37 -60.5t-66 -25.5t-54.5 25.5z" glyph-name="period" horiz-adv-x="468" unicode="."/><glyph d="M-98 0l1046 1333h199l-1045 -1333h-200z" glyph-name="slash" horiz-adv-x="1239" unicode="/"/><glyph d="M564 20.5q-89 -32.5 -173 -32.5t-159.5 32.5t-129.5 92.5q-86 102 -86 225q0 33 7 63q23 109 53 267.5t49 265.5q16 76 66.5 150.5t125.5 134.5q76 59 165 91.5t173 32.5t161 -32.5t128 -91.5q88 -100 88 -220q0 -20 -8 -65q-72 -389 -104 -537q-14 -74 -63.5 -148.5 t-127.5 -135.5q-76 -60 -165 -92.5zM743.5 1143q-53.5 31 -120.5 31q-74 0 -145.5 -37t-121 -92.5t-59.5 -110.5q-23 -109 -52.5 -266.5t-49.5 -266.5q-4 -20 -5 -34q0 -51 31 -99.5t84 -78t121 -29.5q74 0 144.5 35.5t119.5 91t60 110.5q47 236 104 537q2 10 2 29 q0 51 -29.5 100t-83 80z" glyph-name="zero" horiz-adv-x="1218" unicode="0"/><glyph d="M31 877l620 503l-268 -1380h-170l190 979l-417 -338z" glyph-name="one" horiz-adv-x="786" unicode="1"/><glyph d="M809 172l-33 -170h-874q150 162 253 271.5t171 181.5q199 209 276.5 296t113.5 147t38 116q0 86 -58 129q-47 39 -112 39q-121 0 -267 -135q-25 -23 -43 -41.5t-22 -24.5l-111 104q4 6 22.5 25.5t45.5 46.5q145 147 319 184q39 10 90 11q117 0 201 -68q55 -43 83 -105.5 t26 -138.5q-4 -90 -53.5 -180t-127 -180t-235.5 -256q-111 -111 -240 -252h537z" glyph-name="two" horiz-adv-x="1128" unicode="2"/><glyph d="M866 459q0 -33 -6 -70q-14 -82 -66.5 -156.5t-129.5 -132.5q-72 -53 -160 -82.5t-178 -29.5q-88 0 -165 29.5t-130 82.5q-61 66 -80 148l164 106q4 -86 71.5 -141t171.5 -55q117 0 213.5 67.5t116.5 163.5q4 25 4 35q0 57 -28.5 106.5t-63.5 79.5q-25 23 -61.5 55.5 t-53.5 47.5l123 104q55 47 79 82t34 84q2 10 2 33q0 68 -47 111.5t-121 43.5q-84 0 -152.5 -55t-83.5 -133h-172q18 98 85 180t162 130t196 48q135 0 222 -83.5t87 -210.5q0 -29 -6 -64q-16 -78 -53 -136.5t-95 -113.5q121 -124 121 -274z" glyph-name="three" horiz-adv-x="1136" unicode="3"/><glyph d="M748 0h-170l61 315h-696l866 1018h199l-166 -848h264l-33 -170h-264zM291 485h381l112 578z" glyph-name="four" horiz-adv-x="1312" unicode="4"/><glyph d="M621.5 43q-115.5 -55 -242.5 -55q-90 0 -166 26.5t-129 79.5q-96 86 -96 209q0 29 6 55h172q-2 -8 -2 -24q0 -74 75.5 -125t172.5 -51q61 0 118.5 18.5t102.5 52.5q45 33 73.5 79t38.5 95q2 10 3 33q0 72 -48 125q-70 74 -196 74l-322 -2h-90l187 700h772l-35 -170h-610 l-97 -358l230 2q92 0 169.5 -31t131.5 -86q86 -92 86 -215q0 -23 -8 -72q-23 -115 -102 -210t-194.5 -150z" glyph-name="five" horiz-adv-x="1161" unicode="5"/><glyph d="M602 1333h195q-250 -350 -277 -389l-110 -153q43 10 106 10q90 0 167 -30t130 -85q88 -90 88 -221q0 -35 -6 -72q-16 -84 -67.5 -158.5t-129.5 -132.5q-74 -55 -161.5 -84.5t-178.5 -29.5q-180 0 -299 114q-88 92 -88 217q0 25 9 74q14 88 75 172zM335 599 q-73 -32 -123 -87t-62 -119q-4 -25 -5 -39q0 -84 70 -140t174 -56q119 0 217.5 69.5t118.5 165.5q4 25 4 37q0 86 -69.5 143.5t-176.5 57.5q-75 0 -148 -32z" glyph-name="six" horiz-adv-x="1128" unicode="6"/><glyph d="M1114 1333l-960 -1333h-193l836 1163h-680l35 170h962z" glyph-name="seven" horiz-adv-x="1185" unicode="7"/><glyph d="M897 465q0 -35 -6 -72q-16 -84 -66.5 -157.5t-128.5 -131.5q-76 -55 -164 -84.5t-176 -29.5q-90 0 -165.5 29.5t-129.5 84.5q-90 94 -90 220q0 20 9 69q14 82 65 158t129 135q57 37 70 43q-74 80 -74 197q0 31 6 63q18 96 86 178t163 130.5t196 48.5q88 0 158.5 -38 t109.5 -104.5t39 -148.5q0 -31 -6 -66q-14 -76 -57.5 -143.5t-106.5 -116.5l51 -43q88 -90 88 -221zM346 954q0 -66 47 -109.5t121 -43.5q84 0 153.5 55t84.5 133q4 25 4 35q0 63 -48.5 107.5t-121.5 44.5q-82 0 -150.5 -55.5t-85.5 -131.5q-4 -25 -4 -35zM603 228.5 q97 68.5 118 164.5q4 25 4 37q0 86 -69.5 142.5t-176.5 56.5q-119 0 -215 -68.5t-114 -167.5q-4 -25 -5 -39q0 -82 70 -138t174 -56q117 0 214 68.5z" glyph-name="eight" horiz-adv-x="1146" unicode="8"/><glyph d="M373 0h-195q135 184 195 268q164 229 198 275q-61 -10 -106 -11q-178 0 -299 115q-88 94 -88 221q0 25 8 74q16 84 66.5 159t128.5 132q74 55 161.5 85t180.5 30q92 0 167.5 -29t129.5 -86q88 -88 88 -219q0 -35 -7 -72q-18 -96 -75 -174zM710.5 772.5 q100.5 67.5 120.5 169.5q4 25 5 37q0 86 -70 142.5t-176 56.5q-78 0 -150.5 -32t-122 -86t-61.5 -118q-4 -29 -4 -39q0 -86 68.5 -142t175.5 -56q114 0 214.5 67.5z" glyph-name="nine" horiz-adv-x="1171" unicode="9"/><glyph d="M-37 197q0 10 2 16q8 35 37 60.5t64 25.5t56 -25.5t15 -60.5q-10 -37 -38.5 -61.5t-63.5 -24.5q-31 0 -51.5 20.5t-20.5 49.5zM63 713q0 10 3 16q6 35 35.5 59.5t64.5 24.5q31 0 51.5 -19.5t20.5 -48.5q0 -10 -2 -16q-8 -35 -38 -60.5t-63 -25.5q-31 0 -51.5 20.5 t-20.5 49.5z" glyph-name="colon" horiz-adv-x="468" unicode=":"/><glyph d="M109.5 488.5q-19.5 23.5 -13.5 60.5q6 35 37 60.5t66 25.5t54 -25.5t13 -60.5t-36.5 -59.5t-65.5 -24.5t-54.5 23.5zM-100 -119l129 236h139l-168 -236h-100z" glyph-name="semicolon" horiz-adv-x="534" unicode=";"/><glyph d="M690 375l-41 -211l-596 504l793 499l-43 -211l-459 -288z" glyph-name="less" horiz-adv-x="993" unicode="&lt;"/><glyph d="M748 356h-754l31 170h755zM836 811h-754l33 170h753z" glyph-name="equal" horiz-adv-x="1052" unicode="="/><glyph d="M111 958l41 213l593 -503l-790 -502l41 211l461 291z" glyph-name="greater" horiz-adv-x="991" unicode=">"/><glyph d="M487 350l-14 -80h-149l14 80q23 115 76 177.5t143 123.5q8 6 24.5 17.5t32.5 21.5q92 66 143.5 119t65.5 133q4 25 4 39q0 82 -69.5 138.5t-173.5 56.5q-76 0 -147.5 -32t-120 -85t-60.5 -117h-170q14 82 63.5 157t126.5 132q74 55 162 85t180 30q90 0 166 -30t127 -85 q90 -90 90 -221q0 -33 -6 -68q-29 -141 -131 -246q-37 -39 -83 -74.5t-87 -64.5l-57 -39q-16 -12 -52 -34.5t-62 -51.5t-36 -82zM321.5 132q28.5 26 63.5 26t56.5 -26t15.5 -60q-10 -35 -39 -59.5t-64 -24.5q-31 0 -51 19.5t-20 47.5q0 10 2 17q8 34 36.5 60z" glyph-name="question" horiz-adv-x="1208" unicode="?"/><glyph d="M1546 815q0 -78 -14 -147q-16 -76 -56 -141.5t-102 -114.5q-59 -47 -125.5 -72t-130.5 -25q-66 0 -120 26t-89 73q-6 6 -26 37q-78 -49 -168 -50q-96 0 -157.5 62.5t-61.5 157.5q0 16 4 49q23 111 117 189.5t202 78.5q43 0 90 -18l6 36h170l-59 -315q-6 -61 25.5 -108.5 t99.5 -47.5q31 0 65.5 13.5t63.5 36.5q63 47 82 133q10 47 10 110q0 178 -104 312q-68 84 -168.5 128t-216.5 44q-162 0 -314.5 -80t-259 -216.5t-137.5 -297.5q-10 -49 -10 -115q0 -135 62.5 -245.5t174 -173t252.5 -62.5q156 0 314 82h268q-131 -119 -291 -185.5 t-324 -66.5q-182 0 -326.5 80.5t-225 222t-80.5 315.5q0 76 14 148q41 207 178 382t334 278.5t403 103.5q152 0 279 -56.5t215 -163.5q137 -168 137 -397zM821 600q35 29 43 70q2 6 2 18q0 35 -22.5 56.5t-57.5 21.5q-41 0 -74.5 -27.5t-41.5 -68.5q-2 -8 -2 -21 q0 -35 22.5 -56.5t57.5 -21.5q38 0 73 29z" glyph-name="at" horiz-adv-x="1722" unicode="@"/><glyph d="M227 258l-168 -258h-188l885 1348l329 -1348h-184l-61 258h-613zM672 934l-334 -506h459z" glyph-name="A" unicode="A"/><glyph d="M989 461q0 -33 -6 -68q-14 -76 -61.5 -147.5t-120.5 -126.5q-74 -57 -165 -88t-187 -31h-500l260 1333h399q188 0 285 -106q72 -78 72 -193q0 -31 -7 -61q-25 -129 -122 -217l-23 -19q86 -41 137 -123q39 -69 39 -153zM272 791h226q84 0 143 20q45 23 89 57.5t58 104.5 q2 10 3 28q0 57 -39 99q-55 61 -177 61h-231zM640 204q71 32 116 83t55 106q2 10 2 33q0 47 -24.5 89t-75.5 67q-78 39 -205 39h-266l-88 -449h329q86 0 157 32z" glyph-name="B" horiz-adv-x="1239" unicode="B"/><glyph d="M845.5 53.5q-149.5 -65.5 -304.5 -65.5q-162 0 -288 71.5t-195.5 196.5t-69.5 281q0 63 12 131q35 184 155.5 340.5t294 248t355.5 91.5q143 0 263 -58.5t194 -165.5l-150 -112q-57 80 -145 123t-193 43q-137 0 -266 -69t-220 -186.5t-118 -254.5q-10 -57 -10 -99 q0 -117 52 -210t147.5 -147t213.5 -54q115 0 228.5 50t202.5 140l112 -106q-121 -123 -270.5 -188.5z" glyph-name="C" horiz-adv-x="1390" unicode="C"/><glyph d="M627 53q-133 -53 -275 -53h-403l260 1333h401q141 0 253 -52t184 -151q94 -137 94 -321q0 -74 -15 -139q-25 -133 -92 -253t-168 -212q-106 -99 -239 -152zM344 1161l-190 -991h231q150 0 270.5 71.5t198.5 186.5t102 242q10 61 11 106q0 135 -70 240q-51 72 -133 108.5 t-186 36.5h-234z" glyph-name="D" horiz-adv-x="1329" unicode="D"/><glyph d="M801 0h-852l260 1333h852l-35 -172h-682l-78 -407h522l-34 -172h-523l-77 -412h682z" glyph-name="E" horiz-adv-x="1200" unicode="E"/><glyph d="M121 0h-172l260 1333h852l-35 -172h-678l-80 -407h520l-34 -172h-521z" glyph-name="F" horiz-adv-x="1181" unicode="F"/><glyph d="M1169 705l-137 -705h-491q-160 0 -286 71.5t-195.5 196.5t-69.5 279q0 63 12 127q37 184 157 338.5t291 245t353 90.5q139 0 258 -57.5t192 -162.5l-147 -114q-57 78 -145.5 120t-192.5 42q-135 0 -262 -68t-217 -182.5t-117 -251.5q-10 -55 -10 -96q0 -115 53 -208.5 t147.5 -146.5t212.5 -53h322l70 365h-369l33 170h538z" glyph-name="G" horiz-adv-x="1435" unicode="G"/><glyph d="M778 0l111 582h-653l-113 -582h-172l260 1333h172l-113 -579h652l112 579h174l-260 -1333h-170z" glyph-name="H" horiz-adv-x="1349" unicode="H"/><glyph d="M145 0h-174l260 1333h175z" glyph-name="I" horiz-adv-x="569" unicode="I"/><glyph d="M484.5 33q-105.5 -45 -216.5 -45q-139 0 -241.5 76.5t-143.5 214.5l168 77q29 -96 93.5 -147t156.5 -51q145 0 264 112q129 129 176 363l136 700h172l-138 -700q-29 -145 -89 -266t-148 -207q-84 -82 -189.5 -127z" glyph-name="J" horiz-adv-x="1177" unicode="J"/><glyph d="M999 0h-221l-319 522l-516 -555l266 1366h172l-164 -841l780 841h211l-618 -665z" glyph-name="K" horiz-adv-x="1331" unicode="K"/><glyph d="M801 0h-852l260 1333h172l-225 -1163h680z" glyph-name="L" horiz-adv-x="1179" unicode="L"/><glyph d="M1325 0h-170l166 852l-643 -668l-389 670l-166 -854h-172l264 1354l516 -889l858 889z" glyph-name="M" horiz-adv-x="1726" unicode="M"/><glyph d="M979 -33l-680 940l-178 -907h-170l264 1354l682 -936l178 915h170z" glyph-name="N" horiz-adv-x="1386" unicode="N"/><glyph d="M898 79q-173 -91 -355 -91q-162 0 -288 71.5t-196.5 196.5t-70.5 281q0 63 12 131q35 184 155.5 339.5t294 247t357.5 91.5q160 0 286 -71t196.5 -196t70.5 -280q0 -63 -12 -131q-35 -184 -156 -341t-294 -248zM988 1122.5q-95 53.5 -214 53.5q-137 0 -266 -69 t-220 -185.5t-118 -253.5q-10 -57 -10 -101q0 -117 53 -210t147.5 -146t214.5 -53q135 0 264.5 68.5t220.5 185t118 256.5q10 57 10 98q0 117 -52.5 210t-147.5 146.5z" glyph-name="O" horiz-adv-x="1540" unicode="O"/><glyph d="M121 0h-172l260 1333h487q86 0 161 -28.5t130 -81.5q43 -43 64.5 -98.5t21.5 -116.5q0 -33 -6 -68q-14 -80 -64.5 -153.5t-128.5 -131.5q-72 -53 -157.5 -82.5t-173.5 -29.5h-316zM344 1161l-84 -446h315q115 0 209.5 65.5t112.5 159.5q2 10 2 33q0 80 -66.5 134 t-170.5 54h-318z" glyph-name="P" horiz-adv-x="1226" unicode="P"/><glyph d="M1024 0l-80 104q-203 -117 -401 -116q-162 0 -288 71.5t-196.5 196.5t-70.5 281q0 63 12 131q35 184 155.5 339.5t294 247t357.5 91.5q160 0 286 -71t196.5 -196t70.5 -280q0 -63 -12 -131q-25 -127 -90.5 -243t-163.5 -208l163 -217h-233zM848 231l-270 369l147 115 l276 -371q68 68 114 151t63 173q10 57 10 98q0 117 -52.5 210t-147.5 146.5t-214 53.5q-137 0 -266 -69t-220 -185.5t-118 -253.5q-10 -55 -10 -99q0 -117 53 -210t148.5 -146t216.5 -53q143 -1 270 71z" glyph-name="Q" horiz-adv-x="1589" unicode="Q"/><glyph d="M889 0h-215l-367 715h191q139 0 225 30q70 29 117 85.5t57 109.5q2 10 2 33q0 78 -65.5 133t-180.5 55h-309l-223 -1161h-172l260 1333h479q94 0 173 -30.5t132 -88.5q80 -92 80 -210q0 -33 -6 -64q-23 -121 -115 -217q-84 -86 -192 -133q-80 -29 -150 -29z" glyph-name="R" horiz-adv-x="1241" unicode="R"/><glyph d="M930 576.5q41 -68.5 41 -148.5q0 -31 -6 -61q-14 -80 -68.5 -153t-138.5 -126q-156 -104 -355 -104q-203 0 -319 104q-88 74 -104 188l176 91q-2 -8 -2 -25q0 -78 80.5 -133t199.5 -55q84 0 163 29.5t132 77.5t64 106q2 10 2 28q0 86 -88 137q-55 31 -203 50 q-164 14 -240 59q-82 43 -126 112.5t-44 151.5q0 29 6 60q14 80 69.5 152.5t139.5 125.5q162 104 359 105q94 0 176 -27t139 -78q90 -74 102 -188l-176 -90q2 10 2 26q0 78 -80.5 131.5t-197.5 53.5q-86 0 -164 -29t-131 -77t-66 -105q-2 -8 -2 -23q0 -45 28 -86t73 -61 q25 -14 62.5 -22.5t75.5 -14.5t52 -8q82 -10 143.5 -24.5t112.5 -43.5q72 -37 113 -105.5z" glyph-name="S" horiz-adv-x="1269" unicode="S"/><glyph d="M1219 1333l-35 -172h-453l-227 -1161h-172l225 1161h-453l35 172h1080z" glyph-name="T" horiz-adv-x="1288" unicode="T"/><glyph d="M671.5 28q-102.5 -40 -206.5 -40t-192.5 40t-145.5 115q-88 113 -88 265q0 61 10 106l160 819h170l-160 -819q-6 -37 -6 -72q0 -104 59 -180q41 -49 98.5 -76.5t125.5 -27.5q70 0 139.5 27.5t126.5 76.5q59 49 98 114.5t53 137.5l160 819h170l-160 -819 q-20 -104 -77.5 -200.5t-143.5 -170.5q-88 -75 -190.5 -115z" glyph-name="U" horiz-adv-x="1384" unicode="U"/><glyph d="M549 389l606 944h186l-874 -1366l-344 1366h188z" glyph-name="V" horiz-adv-x="1402" unicode="V"/><glyph d="M1116 461l457 872h178l-711 -1366l-192 875l-535 -875l-184 1366h180l119 -874l506 827z" glyph-name="W" horiz-adv-x="1812" unicode="W"/><glyph d="M1243 1333l-579 -665l319 -668h-203l-248 516l-448 -516h-203l580 668l-320 665h201l250 -516l448 516h203z" glyph-name="X" horiz-adv-x="1316" unicode="X"/><glyph d="M635 637l573 696h205l-727 -876l-90 -457h-170l90 457l-391 876h203z" glyph-name="Y" horiz-adv-x="1470" unicode="Y"/><glyph d="M797 0h-863l830 1161h-582l35 172h862l-827 -1163h579z" glyph-name="Z" horiz-adv-x="1206" unicode="Z"/><glyph d="M279 0h-355l258 1333h357l-35 -172h-185l-192 -989h186z" glyph-name="bracketleft" horiz-adv-x="653" unicode="["/><glyph d="M688 0l-526 1333h200l525 -1333h-199z" glyph-name="backslash" horiz-adv-x="1239" unicode="\"/><glyph d="M279 0h-355l33 172h184l191 989h-182l32 172h357z" glyph-name="bracketright" horiz-adv-x="653" unicode="]"/><glyph d="M199 791l-99 118l557 467l373 -465l-143 -120l-277 344z" glyph-name="asciicircum" horiz-adv-x="1228" unicode="^"/><glyph d="M1247 0h-1345l35 170h1345z" glyph-name="underscore" horiz-adv-x="1601" unicode="_"/><glyph d="M227 258l-168 -258h-188l885 1348l329 -1348h-184l-61 258h-613zM672 934l-334 -506h459z" glyph-name="a" unicode="a"/><glyph d="M989 461q0 -33 -6 -68q-14 -76 -61.5 -147.5t-120.5 -126.5q-74 -57 -165 -88t-187 -31h-500l260 1333h399q188 0 285 -106q72 -78 72 -193q0 -31 -7 -61q-25 -129 -122 -217l-23 -19q86 -41 137 -123q39 -69 39 -153zM272 791h226q84 0 143 20q45 23 89 57.5t58 104.5 q2 10 3 28q0 57 -39 99q-55 61 -177 61h-231zM640 204q71 32 116 83t55 106q2 10 2 33q0 47 -24.5 89t-75.5 67q-78 39 -205 39h-266l-88 -449h329q86 0 157 32z" glyph-name="b" horiz-adv-x="1239" unicode="b"/><glyph d="M845.5 53.5q-149.5 -65.5 -304.5 -65.5q-162 0 -288 71.5t-195.5 196.5t-69.5 281q0 63 12 131q35 184 155.5 340.5t294 248t355.5 91.5q143 0 263 -58.5t194 -165.5l-150 -112q-57 80 -145 123t-193 43q-137 0 -266 -69t-220 -186.5t-118 -254.5q-10 -57 -10 -99 q0 -117 52 -210t147.5 -147t213.5 -54q115 0 228.5 50t202.5 140l112 -106q-121 -123 -270.5 -188.5z" glyph-name="c" horiz-adv-x="1390" unicode="c"/><glyph d="M627 53q-133 -53 -275 -53h-403l260 1333h401q141 0 253 -52t184 -151q94 -137 94 -321q0 -74 -15 -139q-25 -133 -92 -253t-168 -212q-106 -99 -239 -152zM344 1161l-190 -991h231q150 0 270.5 71.5t198.5 186.5t102 242q10 61 11 106q0 135 -70 240q-51 72 -133 108.5 t-186 36.5h-234z" glyph-name="d" horiz-adv-x="1329" unicode="d"/><glyph d="M801 0h-852l260 1333h852l-35 -172h-682l-78 -407h522l-34 -172h-523l-77 -412h682z" glyph-name="e" horiz-adv-x="1200" unicode="e"/><glyph d="M121 0h-172l260 1333h852l-35 -172h-678l-80 -407h520l-34 -172h-521z" glyph-name="f" horiz-adv-x="1181" unicode="f"/><glyph d="M1169 705l-137 -705h-491q-160 0 -286 71.5t-195.5 196.5t-69.5 279q0 63 12 127q37 184 157 338.5t291 245t353 90.5q139 0 258 -57.5t192 -162.5l-147 -114q-57 78 -145.5 120t-192.5 42q-135 0 -262 -68t-217 -182.5t-117 -251.5q-10 -55 -10 -96q0 -115 53 -208.5 t147.5 -146.5t212.5 -53h322l70 365h-369l33 170h538z" glyph-name="g" horiz-adv-x="1435" unicode="g"/><glyph d="M778 0l111 582h-653l-113 -582h-172l260 1333h172l-113 -579h652l112 579h174l-260 -1333h-170z" glyph-name="h" horiz-adv-x="1349" unicode="h"/><glyph d="M145 0h-174l260 1333h175z" glyph-name="i" horiz-adv-x="569" unicode="i"/><glyph d="M484.5 33q-105.5 -45 -216.5 -45q-139 0 -241.5 76.5t-143.5 214.5l168 77q29 -96 93.5 -147t156.5 -51q145 0 264 112q129 129 176 363l136 700h172l-138 -700q-29 -145 -89 -266t-148 -207q-84 -82 -189.5 -127z" glyph-name="j" horiz-adv-x="1177" unicode="j"/><glyph d="M999 0h-221l-319 522l-516 -555l266 1366h172l-164 -841l780 841h211l-618 -665z" glyph-name="k" horiz-adv-x="1331" unicode="k"/><glyph d="M801 0h-852l260 1333h172l-225 -1163h680z" glyph-name="l" horiz-adv-x="1179" unicode="l"/><glyph d="M1325 0h-170l166 852l-643 -668l-389 670l-166 -854h-172l264 1354l516 -889l858 889z" glyph-name="m" horiz-adv-x="1726" unicode="m"/><glyph d="M979 -33l-680 940l-178 -907h-170l264 1354l682 -936l178 915h170z" glyph-name="n" horiz-adv-x="1386" unicode="n"/><glyph d="M898 79q-173 -91 -355 -91q-162 0 -288 71.5t-196.5 196.5t-70.5 281q0 63 12 131q35 184 155.5 339.5t294 247t357.5 91.5q160 0 286 -71t196.5 -196t70.5 -280q0 -63 -12 -131q-35 -184 -156 -341t-294 -248zM988 1122.5q-95 53.5 -214 53.5q-137 0 -266 -69 t-220 -185.5t-118 -253.5q-10 -57 -10 -101q0 -117 53 -210t147.5 -146t214.5 -53q135 0 264.5 68.5t220.5 185t118 256.5q10 57 10 98q0 117 -52.5 210t-147.5 146.5z" glyph-name="o" horiz-adv-x="1540" unicode="o"/><glyph d="M121 0h-172l260 1333h487q86 0 161 -28.5t130 -81.5q43 -43 64.5 -98.5t21.5 -116.5q0 -33 -6 -68q-14 -80 -64.5 -153.5t-128.5 -131.5q-72 -53 -157.5 -82.5t-173.5 -29.5h-316zM344 1161l-84 -446h315q115 0 209.5 65.5t112.5 159.5q2 10 2 33q0 80 -66.5 134 t-170.5 54h-318z" glyph-name="p" horiz-adv-x="1226" unicode="p"/><glyph d="M1024 0l-80 104q-203 -117 -401 -116q-162 0 -288 71.5t-196.5 196.5t-70.5 281q0 63 12 131q35 184 155.5 339.5t294 247t357.5 91.5q160 0 286 -71t196.5 -196t70.5 -280q0 -63 -12 -131q-25 -127 -90.5 -243t-163.5 -208l163 -217h-233zM848 231l-270 369l147 115 l276 -371q68 68 114 151t63 173q10 57 10 98q0 117 -52.5 210t-147.5 146.5t-214 53.5q-137 0 -266 -69t-220 -185.5t-118 -253.5q-10 -55 -10 -99q0 -117 53 -210t148.5 -146t216.5 -53q143 -1 270 71z" glyph-name="q" horiz-adv-x="1589" unicode="q"/><glyph d="M889 0h-215l-367 715h191q139 0 225 30q70 29 117 85.5t57 109.5q2 10 2 33q0 78 -65.5 133t-180.5 55h-309l-223 -1161h-172l260 1333h479q94 0 173 -30.5t132 -88.5q80 -92 80 -210q0 -33 -6 -64q-23 -121 -115 -217q-84 -86 -192 -133q-80 -29 -150 -29z" glyph-name="r" horiz-adv-x="1241" unicode="r"/><glyph d="M930 576.5q41 -68.5 41 -148.5q0 -31 -6 -61q-14 -80 -68.5 -153t-138.5 -126q-156 -104 -355 -104q-203 0 -319 104q-88 74 -104 188l176 91q-2 -8 -2 -25q0 -78 80.5 -133t199.5 -55q84 0 163 29.5t132 77.5t64 106q2 10 2 28q0 86 -88 137q-55 31 -203 50 q-164 14 -240 59q-82 43 -126 112.5t-44 151.5q0 29 6 60q14 80 69.5 152.5t139.5 125.5q162 104 359 105q94 0 176 -27t139 -78q90 -74 102 -188l-176 -90q2 10 2 26q0 78 -80.5 131.5t-197.5 53.5q-86 0 -164 -29t-131 -77t-66 -105q-2 -8 -2 -23q0 -45 28 -86t73 -61 q25 -14 62.5 -22.5t75.5 -14.5t52 -8q82 -10 143.5 -24.5t112.5 -43.5q72 -37 113 -105.5z" glyph-name="s" horiz-adv-x="1269" unicode="s"/><glyph d="M1219 1333l-35 -172h-453l-227 -1161h-172l225 1161h-453l35 172h1080z" glyph-name="t" horiz-adv-x="1288" unicode="t"/><glyph d="M671.5 28q-102.5 -40 -206.5 -40t-192.5 40t-145.5 115q-88 113 -88 265q0 61 10 106l160 819h170l-160 -819q-6 -37 -6 -72q0 -104 59 -180q41 -49 98.5 -76.5t125.5 -27.5q70 0 139.5 27.5t126.5 76.5q59 49 98 114.5t53 137.5l160 819h170l-160 -819 q-20 -104 -77.5 -200.5t-143.5 -170.5q-88 -75 -190.5 -115z" glyph-name="u" horiz-adv-x="1384" unicode="u"/><glyph d="M549 389l606 944h186l-874 -1366l-344 1366h188z" glyph-name="v" horiz-adv-x="1402" unicode="v"/><glyph d="M1116 461l457 872h178l-711 -1366l-192 875l-535 -875l-184 1366h180l119 -874l506 827z" glyph-name="w" horiz-adv-x="1812" unicode="w"/><glyph d="M1243 1333l-579 -665l319 -668h-203l-248 516l-448 -516h-203l580 668l-320 665h201l250 -516l448 516h203z" glyph-name="x" horiz-adv-x="1316" unicode="x"/><glyph d="M635 637l573 696h205l-727 -876l-90 -457h-170l90 457l-391 876h203z" glyph-name="y" horiz-adv-x="1470" unicode="y"/><glyph d="M797 0h-863l830 1161h-582l35 172h862l-827 -1163h579z" glyph-name="z" horiz-adv-x="1206" unicode="z"/><glyph d="M266 326q0 -49 34 -91t89 -65l-35 -178q-121 29 -192.5 110.5t-71.5 188.5q0 29 6 59l41 205l-84 119l127 117l41 202q25 125 136.5 224.5t260.5 132.5l-34 -179q-74 -27 -127.5 -74.5t-63.5 -103.5l-41 -213q-12 -51 -67 -106q29 -51 28 -86q0 -14 -2 -21l-43 -217 q-2 -8 -2 -24z" glyph-name="braceleft" horiz-adv-x="731" unicode="{"/><glyph d="M139 0h-174l260 1333h172z" glyph-name="bar" horiz-adv-x="555" unicode="|"/><glyph d="M86 246q53 49 64 104l43 217q10 51 63 107q-27 45 -27 82q0 16 2 24l43 213q2 8 2 23q0 49 -33.5 91t-90.5 64l32 179q123 -27 195 -109t72 -188q0 -29 -7 -60l-38 -202l81 -117l-127 -119l-41 -205q-25 -125 -135 -224t-262 -134l35 178q76 27 129 76z" glyph-name="braceright" horiz-adv-x="733" unicode="}"/><glyph d="M334 1186.5q-31 -25.5 -66 -25.5t-55 25.5t-14 60.5t37.5 60.5t66.5 25.5t54.5 -25.5t13.5 -60.5t-37 -60.5zM-45 0l35 170l190 881h131l-149 -881l-35 -170h-172z" glyph-name="exclamdown" horiz-adv-x="534" unicode="¡"/><glyph d="M886 79.5q-126 -63.5 -259 -79.5l-39 -203h-170l39 203q-139 18 -246 93t-165 192.5t-58 259.5q0 61 12 129q33 170 139.5 315.5t258 240.5t319.5 116l41 206h170l-39 -206q117 -14 212 -69.5t161 -146.5l-150 -114q-57 78 -145 122t-193 44q-137 0 -266 -69t-219 -185.5 t-117 -253.5q-10 -55 -10 -99q0 -117 52 -211t146.5 -147t214.5 -53q115 0 226.5 50t202.5 140l112 -106q-104 -105 -230 -168.5z" glyph-name="cent" horiz-adv-x="1388" unicode="¢"/><glyph d="M831 170l-34 -170h-850l35 170h10q74 0 145.5 37t120.5 93t59 112l35 180h-225l35 170h223q33 156 35 182q16 78 65.5 152.5t124.5 132.5q74 59 164 92t176 33h72l-33 -170h-74q-74 0 -145.5 -37t-120.5 -92.5t-59 -110.5l-35 -182h213l-33 -170h-213l-16 -86 q-18 -96 -19 -94q-25 -125 -137 -242h481z" glyph-name="sterling" horiz-adv-x="1193" unicode="£"/><glyph d="M597 715.5q-67 -29.5 -134 -29.5q-111 0 -180.5 69.5t-69.5 176.5q0 31 6 57q16 82 70.5 151.5t131.5 109.5t159 40q63 0 117.5 -25.5t86.5 -72.5l-151 -115q-27 43 -88 43q-53 0 -98.5 -38t-57.5 -93q-2 -8 -2 -24q0 -47 29.5 -78t77.5 -31q31 0 60.5 12.5t49.5 36.5 l113 -106q-53 -54 -120 -83.5zM663.5 625.5q-108.5 -56.5 -225.5 -56.5q-100 0 -180 44t-125 123t-45 175q0 43 8 82q23 115 99.5 213.5t185 155.5t223.5 57q102 0 182 -45t125 -124t45 -177q0 -45 -8 -80q-23 -117 -99.5 -214t-185 -153.5zM761 1339q-73 41 -165 41 q-104 0 -203.5 -52t-169 -140t-88.5 -195q-8 -35 -8 -75q0 -88 41 -160t112.5 -113t163.5 -41q104 0 204 52.5t170.5 142.5t90.5 194q6 37 6 74q0 88 -40.5 159.5t-113.5 112.5z" glyph-name="copyright" horiz-adv-x="1107" unicode="©"/><glyph d="M690 375l-41 -211l-596 504l793 499l-43 -211l-459 -288zM1194 375l-39 -211l-598 504l793 499l-41 -211l-459 -288z" glyph-name="guillemotleft" horiz-adv-x="1497" unicode="«"/><glyph d="M495.5 882q-71.5 -38 -147.5 -38q-102 0 -166.5 65.5t-64.5 165.5q0 33 4 51q14 76 65.5 141.5t124 103.5t148.5 38q102 0 165.5 -64.5t63.5 -164.5q0 -35 -4 -54q-14 -76 -65.5 -141t-123 -103zM489.5 1213.5q-26.5 25.5 -65.5 25.5q-45 0 -82 -32.5t-47 -80.5 q-2 -8 -2 -24q0 -37 24.5 -61.5t63.5 -24.5q45 0 84 31.5t49 78.5q2 8 2 23q0 39 -26.5 64.5z" glyph-name="degree" horiz-adv-x="817" unicode="°"/><glyph d="M616 958l39 213l594 -503l-788 -502l39 211l461 291zM111 958l41 213l596 -503l-793 -502l41 211l461 291z" glyph-name="guillemotright" horiz-adv-x="1495" unicode="»"/><glyph d="M526 983l15 80h151l-14 -80q-23 -115 -76 -177.5t-143 -123.5q-12 -8 -28.5 -19.5t-27.5 -21.5q-88 -59 -142 -114.5t-68 -135.5q-4 -29 -5 -39q0 -84 69 -139t173 -55q117 0 214 68.5t116 164.5h170q-14 -82 -64.5 -156.5t-128.5 -132.5q-74 -55 -162 -84.5t-178 -29.5 q-88 0 -164.5 29.5t-130.5 84.5q-88 92 -88 222q0 35 6 67q29 137 132 246q37 39 83 75t87 64q8 6 25.5 17.5t31.5 21.5q12 8 47 31.5t62.5 52.5t37.5 84zM694.5 1201.5q-30.5 -25.5 -65.5 -25.5q-31 0 -50.5 19t-19.5 48q0 12 2 19q6 33 36 58.5t65 25.5t55 -25t14 -59 q-6 -35 -36.5 -60.5z" glyph-name="questiondown" horiz-adv-x="1208" unicode="¿"/><glyph d="M702 1440l-190 215h193l131 -215h-134zM227 258l-168 -258h-188l885 1348l329 -1348h-184l-61 258h-613zM672 934l-334 -506h459z" glyph-name="Agrave" unicode="À"/><glyph d="M688 1440l215 213h195l-275 -213h-135zM227 258l-168 -258h-188l885 1348l329 -1348h-184l-61 258h-613zM672 934l-334 -506h459z" glyph-name="Aacute" unicode="Á"/><glyph d="M1028 1440h-135l-111 125l-159 -125h-136l215 215l195 -2zM227 258l-168 -258h-188l885 1348l329 -1348h-184l-61 258h-613zM672 934l-334 -506h459z" glyph-name="Acircumflex" unicode="Â"/><glyph d="M999 1477q-74 -37 -143 -37q-82 0 -154 53q-35 29 -73 29q-29 0 -66 -19q-29 -12 -49 -30t-27 -25l-102 90q61 61 131 98q70 35 141 35q88 0 156 -55q37 -27 72 -27q27 0 65 17l82 57l103 -90q-10 -12 -49 -43q-38 -30 -87 -53zM227 258l-168 -258h-188l885 1348 l329 -1348h-184l-61 258h-613zM672 934l-334 -506h459z" glyph-name="Atilde" unicode="Ã"/><glyph d="M543 1585q29 25 63 25q31 0 51 -20q20 -19 21 -48q0 -10 -2 -16q-8 -35 -38 -61t-65 -25q-35 0 -55 25q-20 26 -14 61q10 34 39 59zM931 1585q30 25 64 25q29 0 49 -20q20 -19 21 -48q0 -10 -2 -16q-6 -35 -37 -61t-65 -25q-31 0 -51 19q-19 19 -19 48q0 12 2 19 q8 34 38 59zM227 258l-168 -258h-188l885 1348l329 -1348h-184l-61 258h-613zM672 934l-334 -506h459z" glyph-name="Adieresis" unicode="Ä"/><glyph d="M919 1499q-73 -59 -155 -59q-74 0 -120 47t-46 119q0 12 4 36q16 84 88 144q72 59 154 59q74 0 121 -47t47 -119q0 -12 -4 -37q-16 -84 -89 -143zM850 1679q-12 16 -35 17q-20 0 -40 -17q-19 -16 -23 -37q-4 -23 8 -37q12 -15 35 -16q23 0 41 16q18 15 22 37q4 21 -8 37z M227 258l-168 -258h-188l885 1348l329 -1348h-184l-61 258h-613zM672 934l-334 -506h459z" glyph-name="Aring" unicode="Å"/><glyph d="M1702 1163h-680l-78 -409h518l-32 -172h-521l-78 -412h678l-32 -170h-852l55 283h-432l-189 -283h-188l877 1333h989zM360 457h353l137 706h-27z" glyph-name="AE" horiz-adv-x="1873" unicode="Æ"/><glyph d="M845.5 53.5q149.5 65.5 270.5 188.5l-112 106q-88 -90 -202 -140t-229 -50q-119 0 -214 54t-147 147.5t-52 209.5q0 41 10 99q27 137 118 254.5t220 186.5t266 69q104 0 192.5 -43t145.5 -123l150 112q-74 106 -194 165t-263 59q-182 0 -355.5 -91.5t-294 -248 t-155.5 -340.5q-12 -68 -12 -131q0 -156 69.5 -281t195.5 -196.5t288 -71.5q155 0 304.5 65.5zM633 -340q-72 -51 -162 -51t-141 51q-47 43 -47 109q0 20 2 30h149q-4 -14 16.5 -28.5t51.5 -14.5q29 0 52.5 14.5t27.5 28.5q4 16 -15.5 29.5t-48.5 13.5h-76l31 158h150 l-5 -18q43 -16 70 -41q45 -45 45 -111q0 -20 -2 -31q-8 -39 -33.5 -75.5t-64.5 -63.5z" glyph-name="Ccedilla" horiz-adv-x="1390" unicode="Ç"/><glyph d="M596 1440l-190 215h192l131 -215h-133zM801 0h-852l260 1333h852l-35 -172h-682l-78 -407h522l-34 -172h-523l-77 -412h682z" glyph-name="Egrave" horiz-adv-x="1200" unicode="È"/><glyph d="M561 1440l215 213h195l-275 -213h-135zM801 0h-852l260 1333h852l-35 -172h-682l-78 -407h522l-34 -172h-523l-77 -412h682z" glyph-name="Eacute" horiz-adv-x="1200" unicode="É"/><glyph d="M913 1440h-135l-110 125l-160 -125h-135l215 215l194 -2zM801 0h-852l260 1333h852l-35 -172h-682l-78 -407h522l-34 -172h-523l-77 -412h682z" glyph-name="Ecircumflex" horiz-adv-x="1200" unicode="Ê"/><glyph d="M418 1585q29 25 63 25q31 0 51 -20q20 -19 21 -48q0 -10 -2 -16q-8 -35 -38 -61t-64 -25q-35 0 -56 25q-20 26 -14 61q10 34 39 59zM806 1585q30 25 64 25q29 0 50 -20q20 -19 20 -48q0 -10 -2 -16q-6 -35 -37 -61t-65 -25q-31 0 -51 19q-19 19 -19 48q0 12 2 19 q8 34 38 59zM801 0h-852l260 1333h852l-35 -172h-682l-78 -407h522l-34 -172h-523l-77 -412h682z" glyph-name="Edieresis" horiz-adv-x="1200" unicode="Ë"/><glyph d="M168 0h-170l258 1333h172zM289 1440l-189 215h191l133 -215h-135z" glyph-name="Igrave" horiz-adv-x="591" unicode="Ì"/><glyph d="M143 0h-172l260 1333h172zM268 1440l215 213h195l-275 -213h-135z" glyph-name="Iacute" horiz-adv-x="569" unicode="Í"/><glyph d="M152 0h-170l260 1333h170zM614 1440h-135l-110 125l-160 -125h-133l215 215l192 -2z" glyph-name="Icircumflex" horiz-adv-x="593" unicode="Î"/><glyph d="M147 0h-170l261 1333h170zM117.5 1585.5q29.5 24.5 64.5 24.5q31 0 50.5 -18.5t19.5 -47.5q0 -12 -2 -18q-6 -35 -37 -60.5t-66 -25.5t-54 25.5t-13 60.5q8 35 37.5 59.5zM506 1585.5q29 24.5 63 24.5q31 0 51.5 -19.5t20.5 -48.5q0 -10 -2 -16q-8 -35 -38 -60.5 t-64 -25.5q-35 0 -55.5 25.5t-14.5 60.5q10 35 39 59.5z" glyph-name="Idieresis" horiz-adv-x="593" unicode="Ï"/><glyph d="M1307 809q0 -74 -15 -139q-25 -133 -92 -253t-168 -212q-106 -98 -239.5 -151.5t-274.5 -53.5h-403l112 582h-166l35 170h166l113 581h403q139 0 252 -52t182 -151q95 -137 95 -321zM821 242.5q121 70.5 199 185.5t102 242q10 47 11 106q0 135 -70 240q-51 72 -132 109.5 t-188 37.5h-231l-80 -411h418l-35 -170h-418l-78 -410h232q149 0 270 70.5z" glyph-name="Eth" horiz-adv-x="1495" unicode="Ð"/><glyph d="M989 1477q-74 -37 -143 -37q-82 0 -154 53q-35 29 -74 29q-29 0 -65 -19q-29 -12 -49 -30t-27 -25l-102 90q61 61 131 98q70 35 141 35q88 0 156 -55q37 -27 71 -27q27 0 66 17l82 57l102 -90q-10 -12 -48 -43q-38 -30 -87 -53zM979 -33l-680 940l-178 -907h-170 l264 1354l682 -936l178 915h170z" glyph-name="Ntilde" horiz-adv-x="1386" unicode="Ñ"/><glyph d="M750 1440l-191 215h193l131 -215h-133zM898 79q-173 -91 -355 -91q-162 0 -288 71q-126 72 -197 197t-70 281q0 63 12 131q35 184 156 340t294 246q173 91 357 92q160 0 286 -71t196 -196q71 -125 71 -280q0 -63 -12 -131q-35 -184 -156 -341t-294 -248zM988 1122 q-95 53 -214 54q-137 0 -266 -69t-220 -185q-91 -117 -118 -254q-10 -57 -10 -101q0 -117 53 -210t147 -146t215 -53q135 0 265 68q129 69 220 186t118 256q10 57 10 98q0 117 -52 210q-53 93 -148 146z" glyph-name="Ograve" horiz-adv-x="1540" unicode="Ò"/><glyph d="M725 1440l215 213h195l-275 -213h-135zM898 79q-173 -91 -355 -91q-162 0 -288 71q-126 72 -197 197t-70 281q0 63 12 131q35 184 156 340t294 246q173 91 357 92q160 0 286 -71t196 -196q71 -125 71 -280q0 -63 -12 -131q-35 -184 -156 -341t-294 -248zM988 1122 q-95 53 -214 54q-137 0 -266 -69t-220 -185q-91 -117 -118 -254q-10 -57 -10 -101q0 -117 53 -210t147 -146t215 -53q135 0 265 68q129 69 220 186t118 256q10 57 10 98q0 117 -52 210q-53 93 -148 146z" glyph-name="Oacute" horiz-adv-x="1540" unicode="Ó"/><glyph d="M1073 1440h-135l-111 125l-159 -125h-136l216 215l194 -2zM898 79q-173 -91 -355 -91q-162 0 -288 71q-126 72 -197 197t-70 281q0 63 12 131q35 184 156 340t294 246q173 91 357 92q160 0 286 -71t196 -196q71 -125 71 -280q0 -63 -12 -131q-35 -184 -156 -341 t-294 -248zM988 1122q-95 53 -214 54q-137 0 -266 -69t-220 -185q-91 -117 -118 -254q-10 -57 -10 -101q0 -117 53 -210t147 -146t215 -53q135 0 265 68q129 69 220 186t118 256q10 57 10 98q0 117 -52 210q-53 93 -148 146z" glyph-name="Ocircumflex" horiz-adv-x="1540" unicode="Ô"/><glyph d="M1049 1477q-74 -37 -144 -37q-82 0 -153 53q-35 29 -74 29q-29 0 -66 -19q-29 -12 -49 -30t-26 -25l-103 90q61 61 131 98q70 35 142 35q88 0 155 -55q37 -27 72 -27q27 0 65 17l82 57l103 -90q-10 -12 -48 -43q-38 -30 -87 -53zM898 79q-173 -91 -355 -91 q-162 0 -288 71q-126 72 -197 197t-70 281q0 63 12 131q35 184 156 340t294 246q173 91 357 92q160 0 286 -71t196 -196q71 -125 71 -280q0 -63 -12 -131q-35 -184 -156 -341t-294 -248zM988 1122q-95 53 -214 54q-137 0 -266 -69t-220 -185q-91 -117 -118 -254 q-10 -57 -10 -101q0 -117 53 -210t147 -146t215 -53q135 0 265 68q129 69 220 186t118 256q10 57 10 98q0 117 -52 210q-53 93 -148 146z" glyph-name="Otilde" horiz-adv-x="1540" unicode="Õ"/><glyph d="M588 1585q29 25 63 25q31 0 51 -20q20 -19 21 -48q0 -10 -2 -16q-8 -35 -38 -61t-65 -25q-35 0 -55 25q-20 26 -14 61q10 34 39 59zM976 1585q30 25 64 25q29 0 50 -20q20 -19 20 -48q0 -10 -2 -16q-6 -35 -37 -61t-65 -25q-31 0 -51 19q-19 19 -19 48q0 12 2 19 q8 34 38 59zM898 79q-173 -91 -355 -91q-162 0 -288 71q-126 72 -197 197t-70 281q0 63 12 131q35 184 156 340t294 246q173 91 357 92q160 0 286 -71t196 -196q71 -125 71 -280q0 -63 -12 -131q-35 -184 -156 -341t-294 -248zM988 1122q-95 53 -214 54q-137 0 -266 -69 t-220 -185q-91 -117 -118 -254q-10 -57 -10 -101q0 -117 53 -210t147 -146t215 -53q135 0 265 68q129 69 220 186t118 256q10 57 10 98q0 117 -52 210q-53 93 -148 146z" glyph-name="Odieresis" horiz-adv-x="1540" unicode="Ö"/><glyph d="M729 872l-248 -204l164 -205l-143 -123l-166 207l-246 -207l-96 123l244 205l-166 204l145 123l166 -207l248 207z" glyph-name="multiply" horiz-adv-x="911" unicode="×"/><glyph d="M1319 1028q43 -102 43 -221q0 -53 -14 -133q-35 -184 -156 -340t-294 -248t-355 -92q-137 0 -256 53l-35 -47h-199l105 135q-82 76 -126 180.5t-44 227.5q0 63 12 131q37 184 158 339.5t293 247t356 91.5q145 0 260 -58l33 39h196l-100 -127q80 -76 123 -178zM162 578 q0 -88 29.5 -164t84.5 -131l676 864q-78 33 -176 33q-137 0 -267 -69t-221 -184.5t-118 -252.5q-8 -43 -8 -96zM842 232.5q129 68.5 219 185.5t117 256q10 57 10 100q0 82 -29 154.5t-82 128.5l-669 -860q72 -33 170 -33q135 0 264 68.5z" glyph-name="Oslash" horiz-adv-x="1540" unicode="Ø"/><glyph d="M662 1466l-191 215h193l131 -215h-133zM672 28q-102 -40 -207 -40q-104 0 -193 40q-88 40 -145 115q-88 113 -88 265q0 61 10 106l160 819h170l-160 -819q-6 -37 -6 -72q0 -104 59 -180q41 -49 99 -77q57 -28 125 -27q70 0 139 27q70 28 127 77q59 49 98 115t53 137 l160 819h170l-160 -819q-20 -104 -77 -201q-57 -96 -144 -170q-88 -75 -190 -115z" glyph-name="Ugrave" horiz-adv-x="1384" unicode="Ù"/><glyph d="M637 1440l215 213h195l-275 -213h-135zM672 28q-102 -40 -207 -40q-104 0 -193 40q-88 40 -145 115q-88 113 -88 265q0 61 10 106l160 819h170l-160 -819q-6 -37 -6 -72q0 -104 59 -180q41 -49 99 -77q57 -28 125 -27q70 0 139 27q70 28 127 77q59 49 98 115t53 137 l160 819h170l-160 -819q-20 -104 -77 -201q-57 -96 -144 -170q-88 -75 -190 -115z" glyph-name="Uacute" horiz-adv-x="1384" unicode="Ú"/><glyph d="M993 1440h-135l-110 125l-160 -125h-135l215 215l194 -2zM672 28q-102 -40 -207 -40q-104 0 -193 40q-88 40 -145 115q-88 113 -88 265q0 61 10 106l160 819h170l-160 -819q-6 -37 -6 -72q0 -104 59 -180q41 -49 99 -77q57 -28 125 -27q70 0 139 27q70 28 127 77 q59 49 98 115t53 137l160 819h170l-160 -819q-20 -104 -77 -201q-57 -96 -144 -170q-88 -75 -190 -115z" glyph-name="Ucircumflex" horiz-adv-x="1384" unicode="Û"/><glyph d="M502 1585q29 25 63 25q31 0 51 -20q20 -19 21 -48q0 -10 -2 -16q-8 -35 -38 -61t-65 -25q-35 0 -55 25q-20 26 -14 61q10 34 39 59zM890 1585q30 25 64 25q29 0 50 -20q20 -19 20 -48q0 -10 -2 -16q-6 -35 -37 -61t-65 -25q-31 0 -51 19q-19 19 -19 48q0 12 2 19 q8 34 38 59zM672 28q-102 -40 -207 -40q-104 0 -193 40q-88 40 -145 115q-88 113 -88 265q0 61 10 106l160 819h170l-160 -819q-6 -37 -6 -72q0 -104 59 -180q41 -49 99 -77q57 -28 125 -27q70 0 139 27q70 28 127 77q59 49 98 115t53 137l160 819h170l-160 -819 q-20 -104 -77 -201q-57 -96 -144 -170q-88 -75 -190 -115z" glyph-name="Udieresis" horiz-adv-x="1384" unicode="Ü"/><glyph d="M692 1440l215 213h195l-275 -213h-135zM635 637l573 696h205l-727 -876l-90 -457h-170l90 457l-391 876h203z" glyph-name="Yacute" horiz-adv-x="1470" unicode="Ý"/><glyph d="M991 463q0 -20 -8 -70q-14 -76 -61.5 -147.5t-118.5 -126.5q-76 -57 -167 -88t-185 -31h-140l33 170h141q86 0 157 31.5t116 83t55 108.5q4 20 4 33q0 45 -26.5 88t-77.5 68q-74 37 -209 36h-74l35 170h18q88 0 160 54.5t88 132.5q2 10 2 31q0 68 -49 111.5t-129 43.5 q-86 0 -157.5 -55t-86.5 -131l-190 -975h-172l190 975q14 72 56.5 138.5t107.5 117.5q63 47 138 73.5t149 26.5q76 0 139.5 -25.5t108.5 -74.5q70 -80 69 -191q0 -31 -6 -65q-10 -61 -42 -118.5t-81 -102.5q12 -6 37 -15q92 -47 135 -129q41 -69 41 -147z" glyph-name="germandbls" horiz-adv-x="1239" unicode="ß"/><glyph d="M702 1440l-190 215h193l131 -215h-134zM227 258l-168 -258h-188l885 1348l329 -1348h-184l-61 258h-613zM672 934l-334 -506h459z" glyph-name="agrave" unicode="à"/><glyph d="M688 1440l215 213h195l-275 -213h-135zM227 258l-168 -258h-188l885 1348l329 -1348h-184l-61 258h-613zM672 934l-334 -506h459z" glyph-name="aacute" unicode="á"/><glyph d="M1028 1440h-135l-111 125l-159 -125h-136l215 215l195 -2zM227 258l-168 -258h-188l885 1348l329 -1348h-184l-61 258h-613zM672 934l-334 -506h459z" glyph-name="acircumflex" unicode="â"/><glyph d="M999 1477q-74 -37 -143 -37q-82 0 -154 53q-35 29 -73 29q-29 0 -66 -19q-29 -12 -49 -30t-27 -25l-102 90q61 61 131 98q70 35 141 35q88 0 156 -55q37 -27 72 -27q27 0 65 17l82 57l103 -90q-10 -12 -49 -43q-38 -30 -87 -53zM227 258l-168 -258h-188l885 1348 l329 -1348h-184l-61 258h-613zM672 934l-334 -506h459z" glyph-name="atilde" unicode="ã"/><glyph d="M543 1585q29 25 63 25q31 0 51 -20q20 -19 21 -48q0 -10 -2 -16q-8 -35 -38 -61t-65 -25q-35 0 -55 25q-20 26 -14 61q10 34 39 59zM931 1585q30 25 64 25q29 0 49 -20q20 -19 21 -48q0 -10 -2 -16q-6 -35 -37 -61t-65 -25q-31 0 -51 19q-19 19 -19 48q0 12 2 19 q8 34 38 59zM227 258l-168 -258h-188l885 1348l329 -1348h-184l-61 258h-613zM672 934l-334 -506h459z" glyph-name="adieresis" unicode="ä"/><glyph d="M919 1499q-73 -59 -155 -59q-74 0 -120 47t-46 119q0 12 4 36q16 84 88 144q72 59 154 59q74 0 121 -47t47 -119q0 -12 -4 -37q-16 -84 -89 -143zM850 1679q-12 16 -35 17q-20 0 -40 -17q-19 -16 -23 -37q-4 -23 8 -37q12 -15 35 -16q23 0 41 16q18 15 22 37q4 21 -8 37z M227 258l-168 -258h-188l885 1348l329 -1348h-184l-61 258h-613zM672 934l-334 -506h459z" glyph-name="aring" unicode="å"/><glyph d="M1702 1163h-680l-78 -409h518l-32 -172h-521l-78 -412h678l-32 -170h-852l55 283h-432l-189 -283h-188l877 1333h989zM360 457h353l137 706h-27z" glyph-name="ae" horiz-adv-x="1873" unicode="æ"/><glyph d="M845.5 53.5q149.5 65.5 270.5 188.5l-112 106q-88 -90 -202 -140t-229 -50q-119 0 -214 54t-147 147.5t-52 209.5q0 41 10 99q27 137 118 254.5t220 186.5t266 69q104 0 192.5 -43t145.5 -123l150 112q-74 106 -194 165t-263 59q-182 0 -355.5 -91.5t-294 -248 t-155.5 -340.5q-12 -68 -12 -131q0 -156 69.5 -281t195.5 -196.5t288 -71.5q155 0 304.5 65.5zM633 -340q-72 -51 -162 -51t-141 51q-47 43 -47 109q0 20 2 30h149q-4 -14 16.5 -28.5t51.5 -14.5q29 0 52.5 14.5t27.5 28.5q4 16 -15.5 29.5t-48.5 13.5h-76l31 158h150 l-5 -18q43 -16 70 -41q45 -45 45 -111q0 -20 -2 -31q-8 -39 -33.5 -75.5t-64.5 -63.5z" glyph-name="ccedilla" horiz-adv-x="1390" unicode="ç"/><glyph d="M596 1440l-190 215h192l131 -215h-133zM801 0h-852l260 1333h852l-35 -172h-682l-78 -407h522l-34 -172h-523l-77 -412h682z" glyph-name="egrave" horiz-adv-x="1200" unicode="è"/><glyph d="M561 1440l215 213h195l-275 -213h-135zM801 0h-852l260 1333h852l-35 -172h-682l-78 -407h522l-34 -172h-523l-77 -412h682z" glyph-name="eacute" horiz-adv-x="1200" unicode="é"/><glyph d="M913 1440h-135l-110 125l-160 -125h-135l215 215l194 -2zM801 0h-852l260 1333h852l-35 -172h-682l-78 -407h522l-34 -172h-523l-77 -412h682z" glyph-name="ecircumflex" horiz-adv-x="1200" unicode="ê"/><glyph d="M418 1585q29 25 63 25q31 0 51 -20q20 -19 21 -48q0 -10 -2 -16q-8 -35 -38 -61t-64 -25q-35 0 -56 25q-20 26 -14 61q10 34 39 59zM806 1585q30 25 64 25q29 0 50 -20q20 -19 20 -48q0 -10 -2 -16q-6 -35 -37 -61t-65 -25q-31 0 -51 19q-19 19 -19 48q0 12 2 19 q8 34 38 59zM801 0h-852l260 1333h852l-35 -172h-682l-78 -407h522l-34 -172h-523l-77 -412h682z" glyph-name="edieresis" horiz-adv-x="1200" unicode="ë"/><glyph d="M168 0h-170l258 1333h172zM289 1440l-189 215h191l133 -215h-135z" glyph-name="igrave" horiz-adv-x="591" unicode="ì"/><glyph d="M143 0h-172l260 1333h172zM268 1440l215 213h195l-275 -213h-135z" glyph-name="iacute" horiz-adv-x="569" unicode="í"/><glyph d="M152 0h-170l260 1333h170zM614 1440h-135l-110 125l-160 -125h-133l215 215l192 -2z" glyph-name="icircumflex" horiz-adv-x="593" unicode="î"/><glyph d="M147 0h-170l261 1333h170zM117.5 1585.5q29.5 24.5 64.5 24.5q31 0 50.5 -18.5t19.5 -47.5q0 -12 -2 -18q-6 -35 -37 -60.5t-66 -25.5t-54 25.5t-13 60.5q8 35 37.5 59.5zM506 1585.5q29 24.5 63 24.5q31 0 51.5 -19.5t20.5 -48.5q0 -10 -2 -16q-8 -35 -38 -60.5 t-64 -25.5q-35 0 -55.5 25.5t-14.5 60.5q10 35 39 59.5z" glyph-name="idieresis" horiz-adv-x="593" unicode="ï"/><glyph d="M989 1477q-74 -37 -143 -37q-82 0 -154 53q-35 29 -74 29q-29 0 -65 -19q-29 -12 -49 -30t-27 -25l-102 90q61 61 131 98q70 35 141 35q88 0 156 -55q37 -27 71 -27q27 0 66 17l82 57l102 -90q-10 -12 -48 -43q-38 -30 -87 -53zM979 -33l-680 940l-178 -907h-170 l264 1354l682 -936l178 915h170z" glyph-name="ntilde" horiz-adv-x="1386" unicode="ñ"/><glyph d="M750 1440l-191 215h193l131 -215h-133zM898 79q-173 -91 -355 -91q-162 0 -288 71q-126 72 -197 197t-70 281q0 63 12 131q35 184 156 340t294 246q173 91 357 92q160 0 286 -71t196 -196q71 -125 71 -280q0 -63 -12 -131q-35 -184 -156 -341t-294 -248zM988 1122 q-95 53 -214 54q-137 0 -266 -69t-220 -185q-91 -117 -118 -254q-10 -57 -10 -101q0 -117 53 -210t147 -146t215 -53q135 0 265 68q129 69 220 186t118 256q10 57 10 98q0 117 -52 210q-53 93 -148 146z" glyph-name="ograve" horiz-adv-x="1540" unicode="ò"/><glyph d="M725 1440l215 213h195l-275 -213h-135zM898 79q-173 -91 -355 -91q-162 0 -288 71q-126 72 -197 197t-70 281q0 63 12 131q35 184 156 340t294 246q173 91 357 92q160 0 286 -71t196 -196q71 -125 71 -280q0 -63 -12 -131q-35 -184 -156 -341t-294 -248zM988 1122 q-95 53 -214 54q-137 0 -266 -69t-220 -185q-91 -117 -118 -254q-10 -57 -10 -101q0 -117 53 -210t147 -146t215 -53q135 0 265 68q129 69 220 186t118 256q10 57 10 98q0 117 -52 210q-53 93 -148 146z" glyph-name="oacute" horiz-adv-x="1540" unicode="ó"/><glyph d="M1073 1440h-135l-111 125l-159 -125h-136l216 215l194 -2zM898 79q-173 -91 -355 -91q-162 0 -288 71q-126 72 -197 197t-70 281q0 63 12 131q35 184 156 340t294 246q173 91 357 92q160 0 286 -71t196 -196q71 -125 71 -280q0 -63 -12 -131q-35 -184 -156 -341 t-294 -248zM988 1122q-95 53 -214 54q-137 0 -266 -69t-220 -185q-91 -117 -118 -254q-10 -57 -10 -101q0 -117 53 -210t147 -146t215 -53q135 0 265 68q129 69 220 186t118 256q10 57 10 98q0 117 -52 210q-53 93 -148 146z" glyph-name="ocircumflex" horiz-adv-x="1540" unicode="ô"/><glyph d="M1049 1477q-74 -37 -144 -37q-82 0 -153 53q-35 29 -74 29q-29 0 -66 -19q-29 -12 -49 -30t-26 -25l-103 90q61 61 131 98q70 35 142 35q88 0 155 -55q37 -27 72 -27q27 0 65 17l82 57l103 -90q-10 -12 -48 -43q-38 -30 -87 -53zM898 79q-173 -91 -355 -91 q-162 0 -288 71q-126 72 -197 197t-70 281q0 63 12 131q35 184 156 340t294 246q173 91 357 92q160 0 286 -71t196 -196q71 -125 71 -280q0 -63 -12 -131q-35 -184 -156 -341t-294 -248zM988 1122q-95 53 -214 54q-137 0 -266 -69t-220 -185q-91 -117 -118 -254 q-10 -57 -10 -101q0 -117 53 -210t147 -146t215 -53q135 0 265 68q129 69 220 186t118 256q10 57 10 98q0 117 -52 210q-53 93 -148 146z" glyph-name="otilde" horiz-adv-x="1540" unicode="õ"/><glyph d="M588 1585q29 25 63 25q31 0 51 -20q20 -19 21 -48q0 -10 -2 -16q-8 -35 -38 -61t-65 -25q-35 0 -55 25q-20 26 -14 61q10 34 39 59zM976 1585q30 25 64 25q29 0 50 -20q20 -19 20 -48q0 -10 -2 -16q-6 -35 -37 -61t-65 -25q-31 0 -51 19q-19 19 -19 48q0 12 2 19 q8 34 38 59zM898 79q-173 -91 -355 -91q-162 0 -288 71q-126 72 -197 197t-70 281q0 63 12 131q35 184 156 340t294 246q173 91 357 92q160 0 286 -71t196 -196q71 -125 71 -280q0 -63 -12 -131q-35 -184 -156 -341t-294 -248zM988 1122q-95 53 -214 54q-137 0 -266 -69 t-220 -185q-91 -117 -118 -254q-10 -57 -10 -101q0 -117 53 -210t147 -146t215 -53q135 0 265 68q129 69 220 186t118 256q10 57 10 98q0 117 -52 210q-53 93 -148 146z" glyph-name="odieresis" horiz-adv-x="1540" unicode="ö"/><glyph d="M1319 1028q43 -102 43 -221q0 -53 -14 -133q-35 -184 -156 -340t-294 -248t-355 -92q-137 0 -256 53l-35 -47h-199l105 135q-82 76 -126 180.5t-44 227.5q0 63 12 131q37 184 158 339.5t293 247t356 91.5q145 0 260 -58l33 39h196l-100 -127q80 -76 123 -178zM162 578 q0 -88 29.5 -164t84.5 -131l676 864q-78 33 -176 33q-137 0 -267 -69t-221 -184.5t-118 -252.5q-8 -43 -8 -96zM842 232.5q129 68.5 219 185.5t117 256q10 57 10 100q0 82 -29 154.5t-82 128.5l-669 -860q72 -33 170 -33q135 0 264 68.5z" glyph-name="oslash" horiz-adv-x="1540" unicode="ø"/><glyph d="M662 1466l-191 215h193l131 -215h-133zM672 28q-102 -40 -207 -40q-104 0 -193 40q-88 40 -145 115q-88 113 -88 265q0 61 10 106l160 819h170l-160 -819q-6 -37 -6 -72q0 -104 59 -180q41 -49 99 -77q57 -28 125 -27q70 0 139 27q70 28 127 77q59 49 98 115t53 137 l160 819h170l-160 -819q-20 -104 -77 -201q-57 -96 -144 -170q-88 -75 -190 -115z" glyph-name="ugrave" horiz-adv-x="1384" unicode="ù"/><glyph d="M637 1440l215 213h195l-275 -213h-135zM672 28q-102 -40 -207 -40q-104 0 -193 40q-88 40 -145 115q-88 113 -88 265q0 61 10 106l160 819h170l-160 -819q-6 -37 -6 -72q0 -104 59 -180q41 -49 99 -77q57 -28 125 -27q70 0 139 27q70 28 127 77q59 49 98 115t53 137 l160 819h170l-160 -819q-20 -104 -77 -201q-57 -96 -144 -170q-88 -75 -190 -115z" glyph-name="uacute" horiz-adv-x="1384" unicode="ú"/><glyph d="M993 1440h-135l-110 125l-160 -125h-135l215 215l194 -2zM672 28q-102 -40 -207 -40q-104 0 -193 40q-88 40 -145 115q-88 113 -88 265q0 61 10 106l160 819h170l-160 -819q-6 -37 -6 -72q0 -104 59 -180q41 -49 99 -77q57 -28 125 -27q70 0 139 27q70 28 127 77 q59 49 98 115t53 137l160 819h170l-160 -819q-20 -104 -77 -201q-57 -96 -144 -170q-88 -75 -190 -115z" glyph-name="ucircumflex" horiz-adv-x="1384" unicode="û"/><glyph d="M502 1585q29 25 63 25q31 0 51 -20q20 -19 21 -48q0 -10 -2 -16q-8 -35 -38 -61t-65 -25q-35 0 -55 25q-20 26 -14 61q10 34 39 59zM890 1585q30 25 64 25q29 0 50 -20q20 -19 20 -48q0 -10 -2 -16q-6 -35 -37 -61t-65 -25q-31 0 -51 19q-19 19 -19 48q0 12 2 19 q8 34 38 59zM672 28q-102 -40 -207 -40q-104 0 -193 40q-88 40 -145 115q-88 113 -88 265q0 61 10 106l160 819h170l-160 -819q-6 -37 -6 -72q0 -104 59 -180q41 -49 99 -77q57 -28 125 -27q70 0 139 27q70 28 127 77q59 49 98 115t53 137l160 819h170l-160 -819 q-20 -104 -77 -201q-57 -96 -144 -170q-88 -75 -190 -115z" glyph-name="udieresis" horiz-adv-x="1384" unicode="ü"/><glyph d="M692 1440l215 213h195l-275 -213h-135zM635 637l573 696h205l-727 -876l-90 -457h-170l90 457l-391 876h203z" glyph-name="yacute" horiz-adv-x="1470" unicode="ý"/><glyph d="M565 1585q29 25 64 25q31 0 51 -20q20 -19 20 -48q0 -10 -2 -16q-8 -35 -38 -61t-64 -25q-35 0 -55 25q-20 26 -15 61q10 34 39 59zM953 1585q30 25 65 25q29 0 49 -20q20 -19 20 -48q0 -10 -2 -16q-6 -35 -36 -61q-31 -26 -66 -25q-31 0 -50 19t-20 48q0 12 2 19 q8 34 38 59zM635 637l573 696h205l-727 -876l-90 -457h-170l90 457l-391 876h203z" glyph-name="ydieresis" horiz-adv-x="1470" unicode="ÿ"/><glyph d="M1348 1163l-78 -409h522l-35 -172h-522l-78 -412h682l-35 -170h-852l25 127q-98 -66 -210 -101.5t-224 -35.5q-162 0 -288 71.5t-196.5 197.5t-70.5 282q0 61 12 129q35 184 155.5 339.5t294 247t357.5 91.5q225 0 379 -138l26 123h852l-34 -170h-682zM817 216 q117 56 207 155l115 596q-49 98 -144.5 154.5t-218.5 56.5q-137 0 -267 -69t-221 -185.5t-118 -253.5q-10 -57 -10 -99q0 -117 53 -211t148.5 -147t216.5 -53q122 0 239 56z" glyph-name="OE" horiz-adv-x="2201" unicode="Œ"/><glyph d="M1348 1163l-78 -409h522l-35 -172h-522l-78 -412h682l-35 -170h-852l25 127q-98 -66 -210 -101.5t-224 -35.5q-162 0 -288 71.5t-196.5 197.5t-70.5 282q0 61 12 129q35 184 155.5 339.5t294 247t357.5 91.5q225 0 379 -138l26 123h852l-34 -170h-682zM817 216 q117 56 207 155l115 596q-49 98 -144.5 154.5t-218.5 56.5q-137 0 -267 -69t-221 -185.5t-118 -253.5q-10 -57 -10 -99q0 -117 53 -211t148.5 -147t216.5 -53q122 0 239 56z" glyph-name="oe" horiz-adv-x="2201" unicode="œ"/><glyph d="M1210 1440h-135l-110 125l-160 -125h-135l215 215l194 -2zM1116 461l457 872h178l-711 -1366l-192 875l-535 -875l-184 1366h180l119 -874l506 827z" glyph-name="Wcircumflex" horiz-adv-x="1812" unicode="Ŵ"/><glyph d="M1210 1440h-135l-110 125l-160 -125h-135l215 215l194 -2zM1116 461l457 872h178l-711 -1366l-192 875l-535 -875l-184 1366h180l119 -874l506 827z" glyph-name="wcircumflex" horiz-adv-x="1812" unicode="ŵ"/><glyph d="M1044 1440h-135l-110 125l-160 -125h-135l215 215l194 -2zM635 637l573 696h205l-727 -876l-90 -457h-170l90 457l-391 876h203z" glyph-name="Ycircumflex" horiz-adv-x="1470" unicode="Ŷ"/><glyph d="M1044 1440h-135l-110 125l-160 -125h-135l215 215l194 -2zM635 637l573 696h205l-727 -876l-90 -457h-170l90 457l-391 876h203z" glyph-name="ycircumflex" horiz-adv-x="1470" unicode="ŷ"/><glyph d="M565 1585q29 25 64 25q31 0 51 -20q20 -19 20 -48q0 -10 -2 -16q-8 -35 -38 -61t-64 -25q-35 0 -55 25q-20 26 -15 61q10 34 39 59zM953 1585q30 25 65 25q29 0 49 -20q20 -19 20 -48q0 -10 -2 -16q-6 -35 -36 -61q-31 -26 -66 -25q-31 0 -50 19t-20 48q0 12 2 19 q8 34 38 59zM635 637l573 696h205l-727 -876l-90 -457h-170l90 457l-391 876h203z" glyph-name="Ydieresis" horiz-adv-x="1470" unicode="Ÿ"/><glyph d="M-102 1440l-191 215h193l131 -215h-133z" glyph-name="gravecomb" horiz-adv-x="0" unicode="̀"/><glyph d="M-336 1440l215 213h195l-275 -213h-135z" glyph-name="acutecomb" horiz-adv-x="0" unicode="́"/><glyph d="M33 1440h-135l-111 125l-160 -125h-135l215 215l195 -2z" glyph-name="uni0302" horiz-adv-x="0" unicode="̂"/><glyph d="M-414 1477q-74 -37 -143 -37q-82 0 -154 53q-35 29 -73 29q-29 0 -66 -19q-29 -12 -49.5 -30.5t-26.5 -24.5l-102 90q61 61 131 98q70 35 141 35q88 0 156 -55q37 -27 72 -27q27 0 65 17l82 57l102 -90q-10 -12 -48 -42.5t-87 -53.5z" glyph-name="tildecomb" horiz-adv-x="0" unicode="̃"/><glyph d="M-83 1585.5q30 24.5 65 24.5q31 0 50 -18.5t19 -47.5q0 -12 -2 -18q-6 -35 -36.5 -60.5t-65.5 -25.5t-54.5 25.5t-13.5 60.5q8 35 38 59.5z" glyph-name="uni0307" horiz-adv-x="0" unicode="̇"/><glyph d="M-448.5 1585.5q28.5 24.5 63.5 24.5q31 0 51.5 -19.5t20.5 -48.5q0 -10 -2 -16q-8 -35 -38 -60.5t-65 -25.5t-55.5 25.5t-13.5 60.5q10 35 38.5 59.5zM-60.5 1585.5q29.5 24.5 64.5 24.5q29 0 49.5 -19.5t20.5 -48.5q0 -10 -2 -16q-6 -35 -37 -60.5t-66 -25.5 q-31 0 -50 19.5t-19 47.5q0 12 2 19q8 35 37.5 59.5z" glyph-name="uni0308" horiz-adv-x="0" unicode="̈"/><glyph d="M-15.5 1499.5q-72.5 -59.5 -154.5 -59.5q-74 0 -120 47t-46 119q0 12 4 36q16 84 88 143.5t154 59.5q74 0 121 -47t47 -119q0 -12 -4 -37q-17 -83 -89.5 -142.5zM-84 1679.5q-12 16.5 -35 16.5q-20 0 -39.5 -16.5t-23.5 -37.5q-4 -23 8 -38t35 -15t41 15.5t22 37.5 q4 21 -8 37.5z" glyph-name="uni030A" horiz-adv-x="0" unicode="̊"/><glyph d="M-639 -340q-72 -51 -162 -51t-141 51q-47 43 -47 109q0 20 2 30h149q-4 -14 16.5 -28.5t51.5 -14.5q29 0 52.5 14.5t27.5 28.5q4 16 -15.5 29.5t-48.5 13.5h-75l30 158h150l-4 -18q43 -16 69 -41q45 -45 45 -111q0 -20 -2 -31q-8 -39 -33.5 -75.5t-64.5 -63.5z" glyph-name="uni0327" horiz-adv-x="0" unicode="̧"/><glyph d="M-616 584h-754l35 170h753z" glyph-name="uni0335" horiz-adv-x="0" unicode="̵"/><glyph d="M-1120 0l1046 1333h197l-1043 -1333h-200z" glyph-name="uni0338" horiz-adv-x="0" unicode="̸"/><glyph d="M881 1440l-191 215h193l131 -215h-133zM1116 461l457 872h178l-711 -1366l-192 875l-535 -875l-184 1366h180l119 -874l506 827z" glyph-name="Wgrave" horiz-adv-x="1812" unicode="Ẁ"/><glyph d="M881 1440l-191 215h193l131 -215h-133zM1116 461l457 872h178l-711 -1366l-192 875l-535 -875l-184 1366h180l119 -874l506 827z" glyph-name="wgrave" horiz-adv-x="1812" unicode="ẁ"/><glyph d="M868 1440l215 213h195l-274 -213h-136zM1116 461l457 872h178l-711 -1366l-192 875l-535 -875l-184 1366h180l119 -874l506 827z" glyph-name="Wacute" horiz-adv-x="1812" unicode="Ẃ"/><glyph d="M868 1440l215 213h195l-274 -213h-136zM1116 461l457 872h178l-711 -1366l-192 875l-535 -875l-184 1366h180l119 -874l506 827z" glyph-name="wacute" horiz-adv-x="1812" unicode="ẃ"/><glyph d="M715 1585q29 25 63 25q31 0 51 -20q20 -19 21 -48q0 -10 -2 -16q-8 -35 -38 -61t-65 -25q-35 0 -55 25q-20 26 -14 61q10 34 39 59zM1103 1585q30 25 64 25q29 0 50 -20q20 -19 20 -48q0 -10 -2 -16q-6 -35 -37 -61t-65 -25q-31 0 -51 19q-19 19 -19 48q0 12 2 19 q8 34 38 59zM1116 461l457 872h178l-711 -1366l-192 875l-535 -875l-184 1366h180l119 -874l506 827z" glyph-name="Wdieresis" horiz-adv-x="1812" unicode="Ẅ"/><glyph d="M715 1585q29 25 63 25q31 0 51 -20q20 -19 21 -48q0 -10 -2 -16q-8 -35 -38 -61t-65 -25q-35 0 -55 25q-20 26 -14 61q10 34 39 59zM1103 1585q30 25 64 25q29 0 50 -20q20 -19 20 -48q0 -10 -2 -16q-6 -35 -37 -61t-65 -25q-31 0 -51 19q-19 19 -19 48q0 12 2 19 q8 34 38 59zM1116 461l457 872h178l-711 -1366l-192 875l-535 -875l-184 1366h180l119 -874l506 827z" glyph-name="wdieresis" horiz-adv-x="1812" unicode="ẅ"/><glyph d="M719 1440l-191 215h193l131 -215h-133zM635 637l573 696h205l-727 -876l-90 -457h-170l90 457l-391 876h203z" glyph-name="Ygrave" horiz-adv-x="1470" unicode="Ỳ"/><glyph d="M719 1440l-191 215h193l131 -215h-133zM635 637l573 696h205l-727 -876l-90 -457h-170l90 457l-391 876h203z" glyph-name="ygrave" horiz-adv-x="1470" unicode="ỳ"/><glyph d="M768 584h-754l35 170h754z" glyph-name="endash" horiz-adv-x="1009" unicode="–"/><glyph d="M137 1098l129 235h142l-170 -235h-101z" glyph-name="quoteleft" horiz-adv-x="499" unicode="‘"/><glyph d="M137 1098l129 235h142l-170 -235h-101z" glyph-name="quoteright" horiz-adv-x="499" unicode="’"/><glyph d="M-131 -119l129 236h141l-170 -236h-100z" glyph-name="quotesinglbase" horiz-adv-x="489" unicode="‚"/><glyph d="M428 1098l127 235h143l-170 -235h-100zM147 1098l127 235h142l-168 -235h-101z" glyph-name="quotedblleft" horiz-adv-x="823" unicode="“"/><glyph d="M428 1098l127 235h143l-170 -235h-100zM147 1098l127 235h142l-168 -235h-101z" glyph-name="quotedblright" horiz-adv-x="823" unicode="”"/><glyph d="M-131 -119l129 236h141l-170 -236h-100zM-131 -119h100l170 236h-141z" glyph-name="quotedblbase" horiz-adv-x="489" unicode="„"/><glyph d="M-46.5 25.5q-19.5 25.5 -12.5 60.5q6 35 36.5 59.5t65.5 24.5q33 0 53.5 -24.5t14.5 -59.5t-37 -60.5t-66 -25.5t-54.5 25.5zM294.5 25.5q-20.5 25.5 -13.5 60.5q6 35 36.5 59.5t65.5 24.5q31 0 50.5 -19.5t19.5 -48.5q0 -10 -2 -16q-6 -35 -36 -60.5t-65 -25.5 t-55.5 25.5zM635.5 25.5q-19.5 25.5 -12.5 60.5q6 35 36.5 59.5t65.5 24.5q33 0 53.5 -25.5t14.5 -58.5q-6 -35 -37 -60.5t-66 -25.5t-54.5 25.5z" glyph-name="ellipsis" horiz-adv-x="1150" unicode="…"/><glyph d="M688 375l-41 -211l-594 504l791 499l-43 -211l-459 -288z" glyph-name="guilsinglleft" horiz-adv-x="991" unicode="‹"/><glyph d="M111 958l41 211l596 -501l-793 -502l41 211l461 291z" glyph-name="guilsinglright" horiz-adv-x="993" unicode="›"/><glyph d="M-98 0l1046 1333h199l-1045 -1333h-200z" glyph-name="fraction" horiz-adv-x="1239" unicode="⁄"/><glyph d="M664.5 1100q-134.5 -76 -224.5 -201h432l-30 -170h-484q-4 -10 -9 -25.5t-9 -35.5q-8 -53 -8 -78h481l-33 -170h-424q43 -119 145.5 -190.5t241.5 -71.5h183l-31 -170h-184q-139 0 -255 54t-191 152.5t-99 225.5h-215l35 170h174q2 23 10 78q8 41 14 61h-172l33 170h211 q111 199 307.5 323t411.5 124h184l-35 -170h-182q-143 0 -277.5 -76z" glyph-name="Euro" horiz-adv-x="1294" unicode="€"/><glyph glyph-name="trademark" horiz-adv-x="1277" unicode="™"/><glyph d="M768 584h-754l35 170h754z" glyph-name="minus" horiz-adv-x="1009" unicode="−"/><glyph d="M756 1348l334 -1348h-187l-229 934l-615 -934h-188z" glyph-name="glyph203" horiz-adv-x="1413"/><glyph d="M756 1348l334 -1348h-187l-229 934l-615 -934h-188z" glyph-name="glyph204" horiz-adv-x="1413"/></font>
</defs>
</svg>
