<?xml version="1.0" standalone="no"?>
<!DOCTYPE svg PUBLIC "-//W3C//DTD SVG 1.1//EN" "http://www.w3.org/Graphics/SVG/1.1/DTD/svg11.dtd">
<svg xmlns="http://www.w3.org/2000/svg"><metadata>This SVG WebFont was generated by YouWorkForThem.
Ellen Luff</metadata><defs><font horiz-adv-x="1423" id="ywftsvg"><font-face ascent="1638" bbox="-1372 -410 2114 1831" cap-height="1331" descent="-410" font-family="" font-stretch="normal" font-weight="400" panose-1="0 0 5 0 0 0 0 0 0 0" underline-position="0" underline-thickness="0" unicode-range="U+0020-2212" units-per-em="2048" x-height="1331"/><missing-glyph d="M756 1434v-1844h-584v1844h584zM614 176h-307v-209h307v209zM553 117v-88h-184v88h184zM614 496h-184v-103h62v41h61v-86h-184v148h-62v-209h307v209zM614 721h-61v-123h-246v-61h307v184zM614 831h-307v-61h123v-68h-123v-61h185v129h122v61zM430 1010v-66h-61v66h61z M492 1073h-185v-192h307v63h-122v129zM614 1311h-305v-62h121v-67h-123v-62h307v62h-122v67h122v62zM614 -74h-307v-61h129l-129 -86v-62h307v62h-188l129 86h59v61z" horiz-adv-x="921"/><glyph d="M756 1434v-1844h-584v1844h584zM614 176h-307v-209h307v209zM553 117v-88h-184v88h184zM614 496h-184v-103h62v41h61v-86h-184v148h-62v-209h307v209zM614 721h-61v-123h-246v-61h307v184zM614 831h-307v-61h123v-68h-123v-61h185v129h122v61zM430 1010v-66h-61v66h61z M492 1073h-185v-192h307v63h-122v129zM614 1311h-305v-62h121v-67h-123v-62h307v62h-122v67h122v62zM614 -74h-307v-61h129l-129 -86v-62h307v62h-188l129 86h59v61z" glyph-name=".notdef" horiz-adv-x="921"/><glyph glyph-name="glyph1" horiz-adv-x="0"/><glyph glyph-name="glyph2" horiz-adv-x="682"/><glyph glyph-name="space" horiz-adv-x="679" unicode=" "/><glyph d="M311 1331v-92l-12 -973h-72l-12 973v92h96zM214.5 121.5q21.5 21.5 49.5 21.5q29 0 49.5 -21.5t20.5 -49.5q0 -29 -20.5 -50.5t-49.5 -21.5t-50 21.5t-21 50.5q0 28 21.5 49.5z" glyph-name="exclam" horiz-adv-x="526" unicode="!"/><glyph d="M381 1135l70 196h104l-100 -196h-74zM170 1135l70 196h104l-100 -196h-74z" glyph-name="quotedbl" horiz-adv-x="724" unicode="&quot;"/><glyph d="M1550 924h-317l-80 -518h320l-15 -91h-319l-45 -315h-93l46 315h-523l-47 -315h-94l47 315h-317l14 91h317l78 518h-317l12 92h318l49 315h92l-47 -315h524l45 315h92l-45 -315h318zM1059 406l78 518h-523l-75 -518h520z" glyph-name="numbersign" horiz-adv-x="1675" unicode="#"/><glyph d="M1022 502q45 -72 45 -162q0 -51 -14 -96q-37 -131 -168 -201q-88 -47 -219 -55v-211h-95v217q-233 18 -411 186l63 68q174 -166 422 -166q88 0 186.5 38t133.5 150q10 41 10 70q0 80 -58.5 144.5t-162.5 97.5l-283 80q-166 55 -238 172q-45 70 -45 157q0 53 15 99 q18 63 60 114t104 84q92 47 204 55v218h95v-220q242 -18 428 -188l-64 -68q-90 84 -193.5 124t-228.5 40q-90 0 -187 -37.5t-130 -150.5q-10 -41 -10 -70q0 -80 57 -143.5t162 -95.5l280 -82q166 -53 242 -168z" glyph-name="dollar" horiz-adv-x="1253" unicode="$"/><glyph d="M1259.5 75q-73.5 -75 -180.5 -75q-68 0 -126 35t-93 93t-35 128q0 106 75 181t179 75q106 0 180 -75t74 -181t-73.5 -181zM1194 372q-47 48 -115 48q-66 0 -112.5 -48t-46.5 -116t47 -116t112 -48q68 0 115 48t47 116t-47 116zM539.5 858q-58.5 -35 -125.5 -35 q-70 0 -128.5 35t-92 93.5t-33.5 127.5q0 106 73.5 181t180.5 75q68 0 126 -34.5t93 -93t35 -128.5q0 -68 -35 -127t-93.5 -94zM526 1196q-47 47 -112 47q-68 0 -115 -47t-47 -117q0 -68 47 -114.5t115 -46.5q66 0 112.5 47t46.5 114q0 70 -47 117zM301 0l784 1331h107 l-784 -1331h-107z" glyph-name="percent" horiz-adv-x="1492" unicode="%"/><glyph d="M1313 420l-101 -84l-67 65l39 31l63 53zM876.5 385q264.5 -266 380.5 -385h-129l-151 147q-94 -74 -174 -117.5t-168 -43.5q-119 0 -217.5 47t-155.5 129t-57 178q0 123 65.5 199.5t188.5 136.5l-39 39q-51 51 -91 124.5t-40 168.5q2 68 28.5 129t75.5 108t112.5 71.5 t133.5 24.5t134.5 -24.5t113.5 -71.5t75.5 -108.5t26.5 -128.5q0 -100 -86 -191q-39 -41 -88 -76l-70 68q72 45 112 97t40 102q0 47 -19.5 92t-54.5 78q-76 70 -184 69q-106 0 -182 -69q-72 -66 -76 -170q0 -68 30.5 -125.5t65.5 -91.5q135 -140 399.5 -406zM768 117 q68 37 143 96l-383 393q-121 -55 -176 -112.5t-55 -153.5q0 -72 45 -131t123 -94t170 -35q65 0 133 37z" glyph-name="ampersand" horiz-adv-x="1495" unicode="&amp;"/><glyph d="M160 1135l67 196h107l-103 -196h-71z" glyph-name="quotesingle" horiz-adv-x="471" unicode="'"/><glyph d="M535 86v-94q-139 18 -244 117q-63 59 -97 128.5t-34 143.5v567q0 74 33.5 143.5t97.5 129.5q102 96 244 118v-96q-102 -16 -181 -90q-47 -45 -74.5 -99.5t-27.5 -105.5v-567q0 -51 27.5 -105.5t74.5 -99.5q75 -70 181 -90z" glyph-name="parenleft" horiz-adv-x="694" unicode="("/><glyph d="M160 86q102 18 180 90q47 45 73.5 98.5t26.5 106.5v567q0 53 -26.5 106.5t-73.5 98.5q-82 74 -180 90v96q137 -23 243 -118q61 -59 95 -129t34 -144v-567q0 -74 -33.5 -143.5t-95.5 -128.5q-106 -98 -243 -117v94z" glyph-name="parenright" horiz-adv-x="692" unicode=")"/><glyph d="M297 608l-74 54l211 290l-344 113l31 88l342 -113v361h92l-2 -361l344 113l29 -88l-342 -113l211 -290l-76 -54l-211 291z" glyph-name="asterisk" horiz-adv-x="1015" unicode="*"/><glyph d="M963 713v-95h-355v-352h-94v352h-354v95h354v356h94v-356h355z" glyph-name="plus" horiz-adv-x="1120" unicode="+"/><glyph d="M125 -100l68 198h106l-102 -198h-72z" glyph-name="comma" horiz-adv-x="458" unicode=","/><glyph d="M963 618h-803v95h803v-95z" glyph-name="hyphen" horiz-adv-x="1120" unicode="-"/><glyph d="M134.5 20.5q-21.5 20.5 -21.5 49.5q0 31 21.5 52t49.5 21q29 0 50.5 -22.5t21.5 -50.5q0 -29 -21.5 -49.5t-50.5 -20.5q-28 0 -49.5 20.5z" glyph-name="period" horiz-adv-x="370" unicode="."/><glyph d="M135 0l785 1331h108l-784 -1331h-109z" glyph-name="slash" horiz-adv-x="1163" unicode="/"/><glyph d="M776 18.5q-80 -32.5 -162 -32.5q-80 0 -159.5 32.5t-143.5 90.5q-61 57 -95 127.5t-34 144.5v567q0 72 34 142.5t95 130.5q63 59 142 90.5t161 31.5t162 -31.5t144 -90.5q63 -59 97 -129t34 -144v-569q0 -72 -34 -142.5t-97 -127.5q-64 -58 -144 -90.5zM743.5 1223.5 q-63.5 25.5 -129.5 25.5q-63 0 -125.5 -24.5t-113.5 -71.5q-47 -45 -74 -98.5t-27 -106.5v-567q0 -53 27 -106.5t74 -98.5q51 -47 113.5 -71.5t125.5 -24.5q66 0 129.5 25.5t112.5 70.5q47 45 73.5 98.5t26.5 104.5v569q0 53 -25.5 107.5t-74.5 97.5q-49 45 -112.5 70.5z " glyph-name="zero" horiz-adv-x="1210" unicode="0"/><glyph d="M90 907l494 473v-1380h-95v1159l-399 -381v129z" glyph-name="one" horiz-adv-x="770" unicode="1"/><glyph d="M967 92v-92h-805l252 343t325 439q78 104 78 215q0 27 -2 41q-18 113 -106 168q-68 49 -152 49q-35 0 -65 -8q-125 -29 -226 -151q-18 -18 -34.5 -39t-22.5 -29l-74 53l60 76q59 72 129.5 119t146.5 63q47 10 86 11q109 0 205 -66q121 -86 145 -229q4 -37 4 -56 q0 -133 -92 -264q-258 -342 -475 -643h623z" glyph-name="two" horiz-adv-x="1101" unicode="2"/><glyph d="M961.5 553q48.5 -88 48.5 -180q0 -104 -59.5 -193.5t-161 -141.5t-220.5 -52q-106 0 -199.5 42t-154.5 115.5t-80 163.5l88 64q0 -78 47 -145.5t126 -106.5t173 -39t174 39t127.5 106.5t47.5 147.5q0 70 -41 139.5t-117 130.5l-103 78l76 76q53 57 73.5 103t20.5 106 q0 100 -75.5 170.5t-182.5 70.5q-106 0 -182 -70.5t-76 -170.5h-94q0 92 48 168.5t129 121.5t175 45q96 0 177 -45t128.5 -121.5t47.5 -168.5q0 -86 -30 -146.5t-93 -126.5q2 -2 7 -6t13 -10q94 -76 142.5 -164z" glyph-name="three" horiz-adv-x="1146" unicode="3"/><glyph d="M287 381h946v-92h-326v-289h-92v289h-702l692 1042h102v-973h-92v824z" glyph-name="four" horiz-adv-x="1312" unicode="4"/><glyph d="M826.5 39q-101.5 -53 -222.5 -53q-119 0 -221 48t-162.5 129t-60.5 173h94q0 -47 25.5 -92t70.5 -80q102 -84 254 -84q96 0 176 41t126 110.5t46 153.5q0 55 -25.5 108.5t-70.5 94.5q-49 43 -114.5 65.5t-137.5 22.5l-395 -2l49 657h778v-92h-692l-33 -469l293 2 q119 0 221.5 -51t162 -140t59.5 -196q0 -109 -59.5 -201t-161 -145z" glyph-name="five" horiz-adv-x="1148" unicode="5"/><glyph d="M590 1331h104q-121 -227 -190 -366l-125 -242q88 41 203 41q121 0 222 -52.5t160.5 -141.5t59.5 -193q0 -106 -59.5 -195.5t-161 -142.5t-221.5 -53q-121 0 -223.5 53t-163 142t-60.5 196q0 90 47 170zM395 633q-80 -39 -123 -106.5t-43 -149.5q0 -80 47.5 -148.5 t128 -108.5t177.5 -40q94 0 174 40t127 108.5t47 148.5t-47 147.5t-127 107.5t-174 40q-107 0 -187 -39z" glyph-name="six" horiz-adv-x="1114" unicode="6"/><glyph d="M1077 1331l-698 -1331h-105l650 1239h-799v92h952z" glyph-name="seven" horiz-adv-x="1191" unicode="7"/><glyph d="M950.5 580.5q67.5 -93.5 67.5 -205.5q0 -104 -59.5 -194.5t-161 -142.5t-219.5 -52q-119 0 -221.5 52t-162 142t-59.5 195q0 113 68.5 206t181.5 140q-72 47 -116 123t-44 162q0 92 47 169.5t128 122.5t178 45q96 0 177 -45t128 -122.5t47 -169.5q0 -88 -43 -163 t-117 -122q113 -47 180.5 -140.5zM353 882.5q36 -57.5 95.5 -90t129.5 -32.5t130 32.5t95 90t35 123.5t-35 122t-95.5 88.5t-129.5 32.5q-70 0 -129.5 -32.5t-95.5 -89t-36 -121.5q0 -66 36 -123.5zM751.5 120q79.5 40 127 107.5t47.5 147.5q0 78 -47.5 145.5t-127 107.5 t-173.5 40t-174 -40t-127.5 -107.5t-47.5 -145.5q0 -80 47.5 -147.5t127 -107.5t174.5 -40q94 0 173.5 40z" glyph-name="eight" horiz-adv-x="1132" unicode="8"/><glyph d="M565 0h-104l319 610q-98 -43 -202 -43q-119 0 -220.5 52.5t-162 141.5t-60.5 195t60.5 196.5t162 143t220.5 52.5q121 0 223 -52.5t162.5 -142.5t60.5 -197q0 -84 -41 -159zM755 699q81 40 128 109t47 148q0 80 -47 150t-128 109.5t-177 39.5q-94 0 -174 -40.5 t-127.5 -109.5t-47.5 -149t47.5 -148.5t127 -108.5t174.5 -40q96 0 177 40z" glyph-name="nine" horiz-adv-x="1159" unicode="9"/><glyph d="M180.5 156.5q-20.5 21.5 -20.5 50.5q0 31 20.5 51.5t48.5 20.5q31 0 51.5 -21.5t20.5 -50.5t-20.5 -50.5t-51.5 -21.5q-28 0 -48.5 21.5zM180.5 585.5q-20.5 20.5 -20.5 51.5q0 29 20.5 50.5t48.5 21.5q31 0 51.5 -21.5t20.5 -50.5t-20.5 -50.5t-51.5 -21.5 q-28 0 -48.5 20.5z" glyph-name="colon" horiz-adv-x="460" unicode=":"/><glyph d="M227.5 404.5q-20.5 21.5 -20.5 50.5t20.5 50t51.5 21q29 0 50 -21.5t21 -49.5q0 -29 -21.5 -50.5t-49.5 -21.5q-31 0 -51.5 21.5zM160 -100l69 196h105l-103 -196h-71z" glyph-name="semicolon" horiz-adv-x="509" unicode=";"/><glyph d="M317 668l504 -367v-115l-661 482l661 477v-115z" glyph-name="less" horiz-adv-x="980" unicode="&lt;"/><glyph d="M963 377h-803v92h803v-92zM963 862h-803v92h803v-92z" glyph-name="equal" horiz-adv-x="1120" unicode="="/><glyph d="M160 1034v115l661 -481l-661 -480v115l502 365z" glyph-name="greater" horiz-adv-x="980" unicode=">"/><glyph d="M524.5 108.5q20.5 20.5 50.5 20.5q29 0 50.5 -20.5t21.5 -49.5q0 -31 -21.5 -52t-50.5 -21q-31 0 -51 21.5t-20 51.5q0 29 20.5 49.5zM610 324v-70h-82v70q0 109 47 184q31 43 105 104q12 8 27.5 21.5t27.5 21.5q90 72 139.5 137.5t49.5 163.5q0 80 -47.5 146.5 t-127 106.5t-174.5 40q-94 0 -173.5 -39t-126 -106.5t-46.5 -147.5h-94q0 78 35 150t98 127q61 53 140 81.5t167 28.5t167 -28.5t143 -81.5q63 -55 97 -127t34 -150q0 -127 -61.5 -209.5t-161.5 -162.5q-10 -10 -25.5 -22.5t-28.5 -20.5q-55 -45 -75.5 -65.5t-37 -57.5 t-16.5 -94z" glyph-name="question" horiz-adv-x="1198" unicode="?"/><glyph d="M1583 965.5q59 -142.5 59 -297.5q0 -143 -100 -244q-94 -88 -221 -88q-86 0 -157.5 46t-110.5 124q-33 -37 -80 -58.5t-101 -21.5q-98 0 -168.5 71.5t-70.5 172.5q0 98 70.5 168.5t168.5 70.5q80 0 144 -47v37h94l2 -262q8 -84 64.5 -146.5t144.5 -62.5q41 0 82 16.5 t74 47.5q74 70 73 176q0 137 -52 262t-150 219q-94 94 -217 144t-259 50q-182 0 -338.5 -91t-247.5 -246.5t-91 -337.5q0 -184 91 -341t246.5 -248t339.5 -91q113 0 218.5 36.5t191.5 102.5h141q-109 -109 -251 -170t-300 -61q-209 0 -386 103t-280.5 280.5t-103.5 388.5 q0 209 103.5 385t281 279.5t385.5 103.5q154 0 293.5 -56.5t247.5 -162.5q111 -109 170 -251.5zM979 562q45 44 45 106q0 61 -45 105t-107 44q-61 0 -105 -44t-44 -105t45 -105.5t104 -44.5q62 0 107 44z" glyph-name="at" horiz-adv-x="1744" unicode="@"/><glyph d="M362 338l-157 -338h-103l627 1348l592 -1348h-100l-150 338h-709zM725 1120l-319 -690h624z" glyph-name="A" unicode="A"/><glyph d="M1051.5 572q66.5 -87 66.5 -197q0 -72 -31.5 -140.5t-91.5 -121.5q-61 -53 -144 -83t-175 -30h-490l2 1331h381q186 0 297 -104q51 -47 79 -108.5t28 -127.5q0 -82 -38 -149.5t-93 -104.5l-19 -12q39 -12 68 -25q94 -41 160.5 -128zM281 752h284q55 0 92 6t74 20 q53 23 101.5 78t48.5 135q0 63 -36 119.5t-106.5 91.5t-169.5 35h-288v-485zM860 133q80 41 123 105.5t43 136.5q0 80 -50 144.5t-120 94.5q-98 43 -248 43h-327v-565h395q104 0 184 41z" glyph-name="B" horiz-adv-x="1232" unicode="B"/><glyph d="M1067 52.5q-137 -66.5 -291 -66.5q-182 0 -337.5 92t-246 248.5t-90.5 341.5q0 184 90.5 339.5t246 248t337.5 92.5q141 0 271.5 -58.5t228.5 -165.5l-72 -63q-82 92 -193.5 143t-234.5 51q-158 0 -291 -78.5t-211.5 -214t-78.5 -294.5q0 -160 78.5 -295t211.5 -214 t291 -79q131 0 249 57.5t202 159.5l73 -57q-96 -121 -233 -187.5z" glyph-name="C" horiz-adv-x="1402" unicode="C"/><glyph d="M831.5 52q-120.5 -52 -262.5 -52h-383v1331h383q141 0 262 -52t209 -149q84 -92 129 -210.5t45 -251.5t-45 -252t-129 -213q-88 -99 -208.5 -151zM279 1237v-1145h290q248 0 404 174q72 78 109.5 181.5t37.5 220.5q0 115 -38 218t-109 181q-158 170 -404 170h-290z" glyph-name="D" horiz-adv-x="1327" unicode="D"/><glyph d="M1049 0h-863v1331h863v-94h-770v-524h600v-95h-600v-522h770v-96z" glyph-name="E" horiz-adv-x="1232" unicode="E"/><glyph d="M279 0h-93v1331h863v-94h-770v-524h602v-97h-602v-616z" glyph-name="F" horiz-adv-x="1214" unicode="F"/><glyph d="M1255 662v-662h-481q-182 0 -335.5 90t-244 244.5t-90.5 339.5q0 182 90.5 336.5t244 246t335.5 91.5q139 0 267 -57.5t223 -160.5l-68 -63q-82 88 -192.5 136t-229.5 48q-156 0 -289 -77.5t-210.5 -210t-77.5 -289.5q0 -158 77.5 -291t210.5 -212t289 -79h385v477h-438 v93h534z" glyph-name="G" horiz-adv-x="1452" unicode="G"/><glyph d="M1069 0v618h-786v-618h-95v713v618h95v-618h786v618h92v-663v-668h-92z" glyph-name="H" horiz-adv-x="1349" unicode="H"/><glyph d="M303 0h-92v1331h92v-1331z" glyph-name="I" horiz-adv-x="514" unicode="I"/><glyph d="M689 29q-93 -43 -202 -43q-135 0 -249.5 76.5t-180.5 211.5l84 41q55 -113 145.5 -174t200.5 -61q180 0 291 135q125 150 125 414v702h92v-702q0 -299 -145 -475q-68 -82 -161 -125z" glyph-name="J" horiz-adv-x="1171" unicode="J"/><glyph d="M1217 0h-123l-478 567l-430 -590v1354h93v-1067l776 1067h116l-499 -684z" glyph-name="K" horiz-adv-x="1329" unicode="K"/><glyph d="M1026 0h-840v1331h93v-1239h747v-92z" glyph-name="L" horiz-adv-x="1189" unicode="L"/><glyph d="M1561 0h-93v1053l-589 -842l-598 844v-1055h-93v1348l691 -975l682 975v-1348z" glyph-name="M" horiz-adv-x="1748" unicode="M"/><glyph d="M1202 -23l-921 1104v-1081h-93v1348l922 -1102v1085h92v-1354z" glyph-name="N" horiz-adv-x="1388" unicode="N"/><glyph d="M1114 77q-156 -91 -338 -91t-337.5 91t-246 247.5t-90.5 341.5q0 184 90.5 340.5t246 248t337.5 91.5t338 -91.5t246 -248t90 -340.5t-90 -341t-246 -248zM1067 1172.5q-133 78.5 -291 78.5t-291 -78.5t-211.5 -213t-78.5 -293.5q0 -160 78.5 -294t211.5 -213t291 -79 t291 79t211 213t78 294t-78 294t-211 212.5z" glyph-name="O" horiz-adv-x="1550" unicode="O"/><glyph d="M281 0h-93l-2 1331h476q117 0 216 -51t157.5 -137t58.5 -189q0 -100 -58.5 -187t-158 -138t-215.5 -51h-381v-578zM279 1237l2 -563h381q92 0 169.5 38t123.5 102.5t46 139.5q0 78 -46 142.5t-123.5 102.5t-169.5 38h-383z" glyph-name="P" horiz-adv-x="1218" unicode="P"/><glyph d="M1399 404.5q-51 -123.5 -144 -218.5l177 -186h-125l-123 125q-86 -66 -190.5 -102.5t-217.5 -36.5q-182 0 -336.5 91t-246 247.5t-91.5 341.5q0 184 91.5 340.5t246 248t336.5 91.5t338 -91.5t246 -248t90 -340.5q0 -138 -51 -261.5zM959.5 109.5q89.5 29.5 160.5 83.5 l-399 432l70 63l401 -434q78 82 121 188.5t43 223.5q0 160 -78 294t-211 212.5t-291 78.5t-291 -78.5t-211.5 -213t-78.5 -293.5q0 -160 78.5 -294t211.5 -213t291 -79q94 0 183.5 29.5z" glyph-name="Q" horiz-adv-x="1562" unicode="Q"/><glyph d="M973 0l-553 672h164q152 0 245 39q70 33 121 99.5t51 145.5q0 72 -43 136.5t-122.5 105.5t-184.5 41h-372v-1239h-93v1331h465q94 0 176 -29.5t144 -84.5q59 -53 91 -121t32 -140q0 -113 -68 -201.5t-160 -127.5q-63 -29 -123.5 -36t-128.5 -7l482 -584h-123z" glyph-name="R" horiz-adv-x="1265" unicode="R"/><glyph d="M1051.5 515q52.5 -77 52.5 -165q0 -76 -37 -144.5t-106 -119.5q-143 -102 -334 -102q-94 0 -180.5 26.5t-153.5 75.5q-117 86 -141 211l88 49q6 -113 110 -184q53 -41 125 -62.5t152 -21.5q164 0 276 84q109 80 109 188q0 63 -40 118.5t-112 94.5q-68 35 -242 55 q-14 2 -103 16.5t-153 45.5q-100 49 -157.5 130t-57.5 175q0 76 38 142.5t108 117.5q68 49 153.5 76t180.5 27q190 0 334 -103q119 -90 139 -209l-88 -49q-2 51 -30 98.5t-79 85.5q-55 41 -126.5 62.5t-149.5 21.5t-151 -21.5t-126 -62.5q-53 -39 -81.5 -87t-28.5 -99 q0 -63 47 -125.5t116 -97.5q43 -20 95.5 -29.5t134.5 -19.5q14 -2 71.5 -10.5t110.5 -22.5t90 -35q94 -53 146.5 -130z" glyph-name="S" horiz-adv-x="1263" unicode="S"/><glyph d="M1260 1331v-94h-527v-1237h-94v1237h-528v94h1149z" glyph-name="T" horiz-adv-x="1370" unicode="T"/><glyph d="M891 26q-92 -40 -197 -40q-100 0 -193 40t-165 113q-72 70 -110 164t-38 199v829h93v-829q0 -86 31.5 -164t88.5 -135q59 -59 135 -91t158 -32q84 0 160 31.5t135 91.5q57 57 89 135t32 164v829h92v-829q0 -104 -38 -198.5t-109 -164.5q-72 -73 -164 -113z" glyph-name="U" horiz-adv-x="1390" unicode="U"/><glyph d="M700 207l504 1124h103l-607 -1354l-604 1354h101z" glyph-name="V" horiz-adv-x="1409" unicode="V"/><glyph d="M1278 264l330 1067h98l-420 -1354l-379 992l-383 -992l-422 1354h97l333 -1071l375 967z" glyph-name="W" horiz-adv-x="1808" unicode="W"/><glyph d="M1174 1331l-476 -665l476 -666h-113l-418 588l-418 -588h-112l475 666l-475 665h112l418 -588l418 588h113z" glyph-name="X" horiz-adv-x="1286" unicode="X"/><glyph d="M735 561l525 770h110l-590 -870v-461h-92v461l-590 870h111z" glyph-name="Y" horiz-adv-x="1468" unicode="Y"/><glyph d="M1065 0h-848l645 1237h-692v94h846l-643 -1239h692v-92z" glyph-name="Z" horiz-adv-x="1222" unicode="Z"/><glyph d="M492 0h-332v1331h332v-94h-240v-1141h240v-96z" glyph-name="bracketleft" horiz-adv-x="651" unicode="["/><glyph d="M244 1331l784 -1331h-108l-785 1331h109z" glyph-name="backslash" horiz-adv-x="1163" unicode="\"/><glyph d="M494 0h-334v96h241v1141h-241v94h334v-1331z" glyph-name="bracketright" horiz-adv-x="653" unicode="]"/><glyph d="M225 846l-65 65l463 465l464 -463l-65 -65l-399 397z" glyph-name="asciicircum" horiz-adv-x="1245" unicode="^"/><glyph d="M1571 0h-1436v92h1436v-92z" glyph-name="underscore" horiz-adv-x="1705" unicode="_"/><glyph d="M362 338l-157 -338h-103l627 1348l592 -1348h-100l-150 338h-709zM725 1120l-319 -690h624z" glyph-name="a" unicode="a"/><glyph d="M1051.5 572q66.5 -87 66.5 -197q0 -72 -31.5 -140.5t-91.5 -121.5q-61 -53 -144 -83t-175 -30h-490l2 1331h381q186 0 297 -104q51 -47 79 -108.5t28 -127.5q0 -82 -38 -149.5t-93 -104.5l-19 -12q39 -12 68 -25q94 -41 160.5 -128zM281 752h284q55 0 92 6t74 20 q53 23 101.5 78t48.5 135q0 63 -36 119.5t-106.5 91.5t-169.5 35h-288v-485zM860 133q80 41 123 105.5t43 136.5q0 80 -50 144.5t-120 94.5q-98 43 -248 43h-327v-565h395q104 0 184 41z" glyph-name="b" horiz-adv-x="1232" unicode="b"/><glyph d="M1067 52.5q-137 -66.5 -291 -66.5q-182 0 -337.5 92t-246 248.5t-90.5 341.5q0 184 90.5 339.5t246 248t337.5 92.5q141 0 271.5 -58.5t228.5 -165.5l-72 -63q-82 92 -193.5 143t-234.5 51q-158 0 -291 -78.5t-211.5 -214t-78.5 -294.5q0 -160 78.5 -295t211.5 -214 t291 -79q131 0 249 57.5t202 159.5l73 -57q-96 -121 -233 -187.5z" glyph-name="c" horiz-adv-x="1402" unicode="c"/><glyph d="M831.5 52q-120.5 -52 -262.5 -52h-383v1331h383q141 0 262 -52t209 -149q84 -92 129 -210.5t45 -251.5t-45 -252t-129 -213q-88 -99 -208.5 -151zM279 1237v-1145h290q248 0 404 174q72 78 109.5 181.5t37.5 220.5q0 115 -38 218t-109 181q-158 170 -404 170h-290z" glyph-name="d" horiz-adv-x="1327" unicode="d"/><glyph d="M1049 0h-863v1331h863v-94h-770v-524h600v-95h-600v-522h770v-96z" glyph-name="e" horiz-adv-x="1232" unicode="e"/><glyph d="M279 0h-93v1331h863v-94h-770v-524h602v-97h-602v-616z" glyph-name="f" horiz-adv-x="1214" unicode="f"/><glyph d="M1255 662v-662h-481q-182 0 -335.5 90t-244 244.5t-90.5 339.5q0 182 90.5 336.5t244 246t335.5 91.5q139 0 267 -57.5t223 -160.5l-68 -63q-82 88 -192.5 136t-229.5 48q-156 0 -289 -77.5t-210.5 -210t-77.5 -289.5q0 -158 77.5 -291t210.5 -212t289 -79h385v477h-438 v93h534z" glyph-name="g" horiz-adv-x="1452" unicode="g"/><glyph d="M1069 0v618h-786v-618h-95v713v618h95v-618h786v618h92v-663v-668h-92z" glyph-name="h" horiz-adv-x="1349" unicode="h"/><glyph d="M303 0h-92v1331h92v-1331z" glyph-name="i" horiz-adv-x="514" unicode="i"/><glyph d="M689 29q-93 -43 -202 -43q-135 0 -249.5 76.5t-180.5 211.5l84 41q55 -113 145.5 -174t200.5 -61q180 0 291 135q125 150 125 414v702h92v-702q0 -299 -145 -475q-68 -82 -161 -125z" glyph-name="j" horiz-adv-x="1171" unicode="j"/><glyph d="M1217 0h-123l-478 567l-430 -590v1354h93v-1067l776 1067h116l-499 -684z" glyph-name="k" horiz-adv-x="1329" unicode="k"/><glyph d="M1026 0h-840v1331h93v-1239h747v-92z" glyph-name="l" horiz-adv-x="1189" unicode="l"/><glyph d="M1561 0h-93v1053l-589 -842l-598 844v-1055h-93v1348l691 -975l682 975v-1348z" glyph-name="m" horiz-adv-x="1748" unicode="m"/><glyph d="M1202 -23l-921 1104v-1081h-93v1348l922 -1102v1085h92v-1354z" glyph-name="n" horiz-adv-x="1388" unicode="n"/><glyph d="M1114 77q-156 -91 -338 -91t-337.5 91t-246 247.5t-90.5 341.5q0 184 90.5 340.5t246 248t337.5 91.5t338 -91.5t246 -248t90 -340.5t-90 -341t-246 -248zM1067 1172.5q-133 78.5 -291 78.5t-291 -78.5t-211.5 -213t-78.5 -293.5q0 -160 78.5 -294t211.5 -213t291 -79 t291 79t211 213t78 294t-78 294t-211 212.5z" glyph-name="o" horiz-adv-x="1550" unicode="o"/><glyph d="M281 0h-93l-2 1331h476q117 0 216 -51t157.5 -137t58.5 -189q0 -100 -58.5 -187t-158 -138t-215.5 -51h-381v-578zM279 1237l2 -563h381q92 0 169.5 38t123.5 102.5t46 139.5q0 78 -46 142.5t-123.5 102.5t-169.5 38h-383z" glyph-name="p" horiz-adv-x="1218" unicode="p"/><glyph d="M1399 404.5q-51 -123.5 -144 -218.5l177 -186h-125l-123 125q-86 -66 -190.5 -102.5t-217.5 -36.5q-182 0 -336.5 91t-246 247.5t-91.5 341.5q0 184 91.5 340.5t246 248t336.5 91.5t338 -91.5t246 -248t90 -340.5q0 -138 -51 -261.5zM959.5 109.5q89.5 29.5 160.5 83.5 l-399 432l70 63l401 -434q78 82 121 188.5t43 223.5q0 160 -78 294t-211 212.5t-291 78.5t-291 -78.5t-211.5 -213t-78.5 -293.5q0 -160 78.5 -294t211.5 -213t291 -79q94 0 183.5 29.5z" glyph-name="q" horiz-adv-x="1562" unicode="q"/><glyph d="M973 0l-553 672h164q152 0 245 39q70 33 121 99.5t51 145.5q0 72 -43 136.5t-122.5 105.5t-184.5 41h-372v-1239h-93v1331h465q94 0 176 -29.5t144 -84.5q59 -53 91 -121t32 -140q0 -113 -68 -201.5t-160 -127.5q-63 -29 -123.5 -36t-128.5 -7l482 -584h-123z" glyph-name="r" horiz-adv-x="1265" unicode="r"/><glyph d="M1051.5 515q52.5 -77 52.5 -165q0 -76 -37 -144.5t-106 -119.5q-143 -102 -334 -102q-94 0 -180.5 26.5t-153.5 75.5q-117 86 -141 211l88 49q6 -113 110 -184q53 -41 125 -62.5t152 -21.5q164 0 276 84q109 80 109 188q0 63 -40 118.5t-112 94.5q-68 35 -242 55 q-14 2 -103 16.5t-153 45.5q-100 49 -157.5 130t-57.5 175q0 76 38 142.5t108 117.5q68 49 153.5 76t180.5 27q190 0 334 -103q119 -90 139 -209l-88 -49q-2 51 -30 98.5t-79 85.5q-55 41 -126.5 62.5t-149.5 21.5t-151 -21.5t-126 -62.5q-53 -39 -81.5 -87t-28.5 -99 q0 -63 47 -125.5t116 -97.5q43 -20 95.5 -29.5t134.5 -19.5q14 -2 71.5 -10.5t110.5 -22.5t90 -35q94 -53 146.5 -130z" glyph-name="s" horiz-adv-x="1263" unicode="s"/><glyph d="M1260 1331v-94h-527v-1237h-94v1237h-528v94h1149z" glyph-name="t" horiz-adv-x="1370" unicode="t"/><glyph d="M891 26q-92 -40 -197 -40q-100 0 -193 40t-165 113q-72 70 -110 164t-38 199v829h93v-829q0 -86 31.5 -164t88.5 -135q59 -59 135 -91t158 -32q84 0 160 31.5t135 91.5q57 57 89 135t32 164v829h92v-829q0 -104 -38 -198.5t-109 -164.5q-72 -73 -164 -113z" glyph-name="u" horiz-adv-x="1390" unicode="u"/><glyph d="M700 207l504 1124h103l-607 -1354l-604 1354h101z" glyph-name="v" horiz-adv-x="1409" unicode="v"/><glyph d="M1278 264l330 1067h98l-420 -1354l-379 992l-383 -992l-422 1354h97l333 -1071l375 967z" glyph-name="w" horiz-adv-x="1808" unicode="w"/><glyph d="M1174 1331l-476 -665l476 -666h-113l-418 588l-418 -588h-112l475 666l-475 665h112l418 -588l418 588h113z" glyph-name="x" horiz-adv-x="1286" unicode="x"/><glyph d="M735 561l525 770h110l-590 -870v-461h-92v461l-590 870h111z" glyph-name="y" horiz-adv-x="1468" unicode="y"/><glyph d="M1065 0h-848l645 1237h-692v94h846l-643 -1239h692v-92z" glyph-name="z" horiz-adv-x="1222" unicode="z"/><glyph d="M407.5 182.5q61.5 -67.5 159.5 -96.5v-94q-139 33 -226 126t-87 210v231q-2 8 -41 53t-53 62q14 16 53 60t41 52v226q0 119 87 212t226 126v-95q-98 -29 -159.5 -96t-61.5 -147v-228q0 -35 -57 -110q57 -76 57 -113v-233q0 -78 61.5 -145.5z" glyph-name="braceleft" horiz-adv-x="724" unicode="{"/><glyph d="M297 0h-92v1331h92v-1331z" glyph-name="bar" horiz-adv-x="501" unicode="|"/><glyph d="M318.5 182.5q60.5 67.5 60.5 145.5v233q0 45 59 113q-59 68 -59 110v228q0 80 -60.5 147.5t-158.5 95.5v95q137 -33 224 -126.5t87 -211.5v-226q4 -8 43 -52t53 -60q-14 -16 -53 -61.5t-43 -53.5v-231q0 -117 -87 -210t-224 -126v94q98 29 158.5 96.5z" glyph-name="braceright" horiz-adv-x="724" unicode="}"/><glyph d="M217 0v92l12 973h70l12 -973v-92h-94zM315.5 1209.5q-20.5 -21.5 -49.5 -21.5q-31 0 -52 21.5t-21 50.5t22.5 50t50.5 21q29 0 49.5 -21.5t20.5 -49.5q0 -29 -20.5 -50.5z" glyph-name="exclamdown" horiz-adv-x="528" unicode="¡"/><glyph d="M1084 62.5q-126 -64.5 -267 -74.5v-211h-94v211q-170 12 -312.5 106t-225.5 244.5t-83 327.5q0 176 83 326.5t225.5 244.5t312.5 106v218h94v-218q131 -8 249 -66t206 -155l-70 -63q-82 92 -193.5 142t-232.5 50q-158 0 -291 -78.5t-211.5 -213t-78.5 -293.5 q0 -160 78.5 -294t211.5 -213t291 -79q131 0 249 57.5t200 159.5l73 -57q-88 -113 -214 -177.5z" glyph-name="cent" horiz-adv-x="1400" unicode="¢"/><glyph d="M1006 92v-92h-822v96q55 4 110.5 29t98.5 65q98 92 99 203v236h-238v92h238v240q0 72 34.5 142.5t96.5 129.5q63 57 142 89t161 32h39v-92h-39q-63 0 -126 -26t-114 -73q-47 -45 -73.5 -98t-26.5 -104v-240h233v-92h-233v-236q0 -72 -34 -143.5t-95 -126.5 q-10 -10 -35 -31h584z" glyph-name="sterling" horiz-adv-x="1140" unicode="£"/><glyph d="M707.5 714.5q-56.5 -26.5 -119.5 -26.5q-74 0 -137.5 38t-101.5 101.5t-38 137.5q0 76 38 139t101.5 101t137.5 38q59 0 112.5 -23.5t92.5 -66.5l-72 -61q-25 29 -60.5 44t-72.5 15q-78 0 -131.5 -54.5t-53.5 -131.5q0 -76 54.5 -130.5t130.5 -54.5q41 0 77.5 17.5 t63.5 50.5l72 -57q-37 -50 -93.5 -76.5zM815.5 578.5q-104.5 -60.5 -227.5 -60.5t-227.5 60.5t-165 164t-60.5 226.5t61.5 227t165 165.5t226.5 61.5t226.5 -61.5t164.5 -165.5t61 -227t-60 -226.5t-164.5 -164zM795.5 1327q-95.5 55 -207.5 55q-113 0 -207 -55 t-150.5 -150.5t-56.5 -207.5q0 -113 56.5 -207t150.5 -150.5t207 -56.5t208 56.5t150 150.5t55 207t-55 208t-150.5 150z" glyph-name="copyright" horiz-adv-x="1177" unicode="©"/><glyph d="M315 668l506 -367v-115l-661 482l661 477v-113zM700 668l504 -367v-115l-661 482l661 477v-115z" glyph-name="guillemotleft" horiz-adv-x="1363" unicode="«"/><glyph d="M519.5 935q-58.5 -34 -128.5 -34q-106 0 -181 75t-75 181t75 181t181 75q68 0 127.5 -35t94 -93t34.5 -128t-34.5 -129t-93 -93zM506 1273q-47 48 -115 48t-115 -48t-47 -116t47.5 -116t114.5 -48q68 0 115 48.5t47 115.5q0 68 -47 116z" glyph-name="degree" horiz-adv-x="782" unicode="°"/><glyph d="M545 1034v117l661 -483l-661 -478v113l504 367zM160 1036v115l661 -481l-661 -480v117l502 363z" glyph-name="guillemotright" horiz-adv-x="1366" unicode="»"/><glyph d="M672.5 1221.5q-21.5 -21.5 -49.5 -21.5q-29 0 -50.5 21.5t-21.5 50.5t21.5 50t50.5 21t50 -21.5t21 -49.5q0 -29 -21.5 -50.5zM588 1006v69h82v-69q0 -109 -47 -185q-25 -35 -60 -65.5t-45 -38.5q-18 -12 -33.5 -25.5t-21.5 -17.5q-90 -72 -139.5 -137.5t-49.5 -163.5 q0 -80 47.5 -147.5t127 -106.5t174.5 -39q94 0 174 39t126 106.5t46 147.5h92q0 -80 -34 -150.5t-97 -124.5q-61 -55 -140 -83.5t-167 -28.5t-167 28.5t-143 83.5q-63 53 -97 125t-34 150q0 127 61.5 210t162.5 162l53 46q53 41 74.5 62t38 58.5t16.5 94.5z" glyph-name="questiondown" horiz-adv-x="1198" unicode="¿"/><glyph d="M641 1468l-229 207h168l165 -207h-104zM362 338l-157 -338h-103l627 1348l592 -1348h-100l-150 338h-709zM725 1120l-319 -690h624z" glyph-name="Agrave" unicode="À"/><glyph d="M610 1468l168 207h168l-229 -207h-107zM362 338l-157 -338h-103l627 1348l592 -1348h-100l-150 338h-709zM725 1120l-319 -690h624z" glyph-name="Aacute" unicode="Á"/><glyph d="M932 1468h-105l-145 131l-145 -131h-105l166 207h166zM362 338l-157 -338h-103l627 1348l592 -1348h-100l-150 338h-709zM725 1120l-319 -690h624z" glyph-name="Acircumflex" unicode="Â"/><glyph d="M432 1492q-14 -17 -18 -24l-78 50q4 8 26 34q23 27 62 55t88 35q16 4 47 5q78 0 150 -52q47 -35 100 -34q18 0 27 2q33 6 59 25q27 19 42 37q15 17 19 24l76 -50q-2 -2 -44 -54t-136 -70q-14 -4 -45 -5q-78 0 -150 52q-49 35 -100 34q-18 0 -27 -2q-31 -6 -57 -25 q-27 -20 -41 -37zM362 338l-157 -338h-103l627 1348l592 -1348h-100l-150 338h-709zM725 1120l-319 -690h624z" glyph-name="Atilde" unicode="Ã"/><glyph d="M432 1590q20 22 51 22q29 0 51 -22t21 -50q0 -31 -21 -51q-22 -20 -51 -21q-29 0 -50 21q-22 20 -21 51q0 28 20 50zM813 1590q20 22 49 22t50 -22q22 -22 22 -50q0 -31 -22 -51t-50 -21q-29 0 -49 21q-20 20 -20 51q0 28 20 50zM362 338l-157 -338h-103l627 1348 l592 -1348h-100l-150 338h-709zM725 1120l-319 -690h624z" glyph-name="Adieresis" unicode="Ä"/><glyph d="M811 1522q-53 -53 -127 -54q-76 0 -128 54q-52 53 -52 127q0 76 52 129t128 53q74 0 127 -53t53 -129q0 -74 -53 -127zM748 1714q-27 27 -64 27q-39 0 -64 -27q-26 -27 -26 -65q0 -37 26 -64t64 -26q37 0 64 26q27 27 26 64q1 38 -26 65zM362 338l-157 -338h-103 l627 1348l592 -1348h-100l-150 338h-709zM725 1120l-319 -690h624z" glyph-name="Aring" unicode="Å"/><glyph d="M1769 1237h-768v-524h598v-95h-598v-526h768v-92h-862v365h-532l-170 -365h-103l617 1331h1050v-94zM418 459h489v778h-129z" glyph-name="AE" horiz-adv-x="1953" unicode="Æ"/><glyph d="M1067 52.5q-137 -66.5 -291 -66.5q-182 0 -337.5 92t-246 248.5t-90.5 341.5q0 184 90.5 339.5t246 248t337.5 92.5q141 0 271.5 -58.5t228.5 -165.5l-72 -63q-82 92 -193.5 143t-234.5 51q-158 0 -291 -78.5t-211.5 -214t-78.5 -294.5q0 -160 78.5 -295t211.5 -214 t291 -79q131 0 249 57.5t202 159.5l73 -57q-96 -121 -233 -187.5zM891 -268q-51 -39 -119 -39t-117 39q-27 18 -41 44.5t-14 55.5h80q0 -23 27.5 -41t64.5 -18t65.5 18.5t28.5 40.5q0 25 -27.5 42t-66.5 17h-39v109h80v-33q47 -10 78 -33q25 -18 39 -45.5t14 -56.5 t-14 -55.5t-39 -44.5z" glyph-name="Ccedilla" horiz-adv-x="1402" unicode="Ç"/><glyph d="M557 1468l-229 207h168l166 -207h-105zM1049 0h-863v1331h863v-94h-770v-524h600v-95h-600v-522h770v-96z" glyph-name="Egrave" horiz-adv-x="1232" unicode="È"/><glyph d="M506 1468l168 207h168l-230 -207h-106zM1049 0h-863v1331h863v-94h-770v-524h600v-95h-600v-522h770v-96z" glyph-name="Eacute" horiz-adv-x="1232" unicode="É"/><glyph d="M842 1468h-105l-145 131l-146 -131h-104l166 207h166zM1049 0h-863v1331h863v-94h-770v-524h600v-95h-600v-522h770v-96z" glyph-name="Ecircumflex" horiz-adv-x="1232" unicode="Ê"/><glyph d="M354 1590q20 22 52 22q29 0 50 -22q22 -22 21 -50q0 -31 -21 -51q-22 -20 -50 -21q-29 0 -51 21q-22 20 -21 51q0 28 20 50zM735 1590q20 22 49 22t51 -22t21 -50q0 -31 -21 -51q-22 -20 -51 -21q-29 0 -49 21q-20 20 -20 51q0 28 20 50zM1049 0h-863v1331h863v-94h-770 v-524h600v-95h-600v-522h770v-96z" glyph-name="Edieresis" horiz-adv-x="1232" unicode="Ë"/><glyph d="M311 0h-94v1331h94v-1331zM209 1446l-229 205h167l166 -205h-104z" glyph-name="Igrave" horiz-adv-x="524" unicode="Ì"/><glyph d="M309 0h-94v1331h94v-1331zM211 1446l168 205h168l-230 -205h-106z" glyph-name="Iacute" horiz-adv-x="526" unicode="Í"/><glyph d="M299 0h-92v1331h92v-1331zM506 1446h-105l-145 131l-145 -131h-105l166 205h166z" glyph-name="Icircumflex" horiz-adv-x="512" unicode="Î"/><glyph d="M299 0h-92v1331h92v-1331zM17.5 1566.5q21.5 20.5 50.5 20.5t50 -20.5t21 -48.5q0 -31 -21.5 -51.5t-49.5 -20.5q-29 0 -50.5 20.5t-21.5 51.5q0 28 21.5 48.5zM397.5 1566.5q20.5 20.5 48.5 20.5q29 0 50.5 -20.5t21.5 -48.5q0 -31 -21.5 -51.5t-50.5 -20.5t-49 20.5 t-20 51.5q0 28 20.5 48.5z" glyph-name="Idieresis" horiz-adv-x="514" unicode="Ï"/><glyph d="M1369 918.5q44 -119.5 44 -250.5q0 -133 -44 -252t-128 -213q-88 -98 -209 -150.5t-260 -52.5h-387v618h-199v95h199v618h387q139 0 260 -52t209 -149q84 -92 128 -211.5zM1283 447.5q38 103.5 38 220.5q0 113 -38 217t-109 182q-78 84 -180.5 127t-221.5 43h-293v-524 h510v-95h-510v-526h293q121 0 223.5 44t178.5 130q71 78 109 181.5z" glyph-name="Eth" horiz-adv-x="1527" unicode="Ð"/><glyph d="M403 1492q-14 -17 -18 -24l-78 50q4 8 27 34q23 27 61 55q39 28 88 35q16 4 47 5q78 0 150 -52q47 -35 100 -34q18 0 27 2q33 6 59 25q27 19 42 37q15 17 20 24l76 -50q-2 -2 -45 -54q-42 -52 -136 -70q-14 -4 -45 -5q-78 0 -149 52q-49 35 -101 34q-18 0 -26 -2 q-31 -6 -58 -25q-27 -20 -41 -37zM1202 -23l-921 1104v-1081h-93v1348l922 -1102v1085h92v-1354z" glyph-name="Ntilde" horiz-adv-x="1388" unicode="Ñ"/><glyph d="M674 1468l-230 207h168l166 -207h-104zM1114 77q-156 -91 -338 -91t-338 91t-245 248q-90 157 -91 341q0 184 91 341q90 157 245 247q156 91 338 92q182 0 338 -92q156 -91 246 -247q90 -157 90 -341t-90 -341t-246 -248zM1067 1172q-133 79 -291 79t-291 -79t-212 -213 t-78 -293q0 -160 78 -294q79 -134 212 -213t291 -79t291 79t211 213t78 294t-78 293q-78 134 -211 213z" glyph-name="Ograve" horiz-adv-x="1550" unicode="Ò"/><glyph d="M659 1468l168 207h168l-229 -207h-107zM1114 77q-156 -91 -338 -91t-338 91t-245 248q-90 157 -91 341q0 184 91 341q90 157 245 247q156 91 338 92q182 0 338 -92q156 -91 246 -247q90 -157 90 -341t-90 -341t-246 -248zM1067 1172q-133 79 -291 79t-291 -79t-212 -213 t-78 -293q0 -160 78 -294q79 -134 212 -213t291 -79t291 79t211 213t78 294t-78 293q-78 134 -211 213z" glyph-name="Oacute" horiz-adv-x="1550" unicode="Ó"/><glyph d="M975 1468h-105l-145 131l-145 -131h-105l166 207h166zM1114 77q-156 -91 -338 -91t-338 91t-245 248q-90 157 -91 341q0 184 91 341q90 157 245 247q156 91 338 92q182 0 338 -92q156 -91 246 -247q90 -157 90 -341t-90 -341t-246 -248zM1067 1172q-133 79 -291 79 t-291 -79t-212 -213t-78 -293q0 -160 78 -294q79 -134 212 -213t291 -79t291 79t211 213t78 294t-78 293q-78 134 -211 213z" glyph-name="Ocircumflex" horiz-adv-x="1550" unicode="Ô"/><glyph d="M477 1492q-14 -17 -18 -24l-78 50q4 8 27 34q23 27 61 55q39 28 88 35q16 4 47 5q78 0 150 -52q47 -35 100 -34q18 0 27 2q33 6 59 25q27 19 42 37q15 17 19 24l76 -50q-2 -2 -44 -54t-136 -70q-14 -4 -45 -5q-78 0 -150 52q-49 35 -100 34q-18 0 -27 -2q-31 -6 -57 -25 q-27 -20 -41 -37zM1114 77q-156 -91 -338 -91t-338 91t-245 248q-90 157 -91 341q0 184 91 341q90 157 245 247q156 91 338 92q182 0 338 -92q156 -91 246 -247q90 -157 90 -341t-90 -341t-246 -248zM1067 1172q-133 79 -291 79t-291 -79t-212 -213t-78 -293q0 -160 78 -294 q79 -134 212 -213t291 -79t291 79t211 213t78 294t-78 293q-78 134 -211 213z" glyph-name="Otilde" horiz-adv-x="1550" unicode="Õ"/><glyph d="M479 1590q20 22 51 22q29 0 51 -22t21 -50q0 -31 -21 -51q-22 -20 -51 -21q-29 0 -50 21q-22 20 -21 51q0 28 20 50zM860 1590q20 22 49 22t50 -22q22 -22 22 -50q0 -31 -22 -51t-50 -21q-29 0 -49 21q-20 20 -20 51q0 28 20 50zM1114 77q-156 -91 -338 -91t-338 91 t-245 248q-90 157 -91 341q0 184 91 341q90 157 245 247q156 91 338 92q182 0 338 -92q156 -91 246 -247q90 -157 90 -341t-90 -341t-246 -248zM1067 1172q-133 79 -291 79t-291 -79t-212 -213t-78 -293q0 -160 78 -294q79 -134 212 -213t291 -79t291 79t211 213t78 294 t-78 293q-78 134 -211 213z" glyph-name="Odieresis" horiz-adv-x="1550" unicode="Ö"/><glyph d="M772 920l-252 -252l252 -250l-65 -66l-252 250l-250 -252l-66 66l248 252l-252 252l68 65l252 -252l252 252z" glyph-name="multiply" horiz-adv-x="907" unicode="×"/><glyph d="M1372 986.5q78 -146.5 78 -316.5q0 -184 -90 -340t-244.5 -247t-339.5 -91q-164 0 -299 69l-39 -61h-108l65 109q-135 94 -214 241.5t-79 319.5q0 184 90.5 340.5t245 248t338.5 91.5q162 0 305 -74l33 53h109l-62 -102q133 -94 211 -240.5zM261.5 398 q66.5 -126 180.5 -208l592 1006q-123 61 -258 61q-158 0 -291 -78.5t-211.5 -214t-78.5 -294.5q0 -146 66.5 -272zM1067 163q133 79 211 213t78 294q0 145 -64.5 269t-177.5 206l-592 -1002q115 -59 254 -59q158 0 291 79z" glyph-name="Oslash" horiz-adv-x="1550" unicode="Ø"/><glyph d="M602 1468l-229 207h168l166 -207h-105zM891 26q-92 -40 -197 -40q-100 0 -193 40t-165 113q-72 70 -110 164t-38 199v829h93v-829q0 -86 31 -164q32 -78 89 -135q59 -59 136 -91q76 -32 157 -32q84 0 160 32t135 91q57 57 89 135t32 164v829h92v-829q0 -104 -38 -199 q-38 -94 -109 -164q-72 -73 -164 -113z" glyph-name="Ugrave" horiz-adv-x="1386" unicode="Ù"/><glyph d="M557 1468l168 207h168l-229 -207h-107zM891 26q-92 -40 -197 -40q-100 0 -193 40t-165 113q-72 70 -110 164t-38 199v829h93v-829q0 -86 31 -164q32 -78 89 -135q59 -59 136 -91q76 -32 157 -32q84 0 160 32t135 91q57 57 89 135t32 164v829h92v-829q0 -104 -38 -199 q-38 -94 -109 -164q-72 -73 -164 -113z" glyph-name="Uacute" horiz-adv-x="1386" unicode="Ú"/><glyph d="M901 1468h-104l-146 131l-145 -131h-105l166 207h166zM891 26q-92 -40 -197 -40q-100 0 -193 40t-165 113q-72 70 -110 164t-38 199v829h93v-829q0 -86 31 -164q32 -78 89 -135q59 -59 136 -91q76 -32 157 -32q84 0 160 32t135 91q57 57 89 135t32 164v829h92v-829 q0 -104 -38 -199q-38 -94 -109 -164q-72 -73 -164 -113z" glyph-name="Ucircumflex" horiz-adv-x="1386" unicode="Û"/><glyph d="M406 1590q20 22 51 22q29 0 50 -22q22 -22 21 -50q0 -31 -21 -51q-22 -20 -50 -21q-29 0 -50 21q-22 20 -22 51q1 28 21 50zM786 1590q20 22 50 22q29 0 50 -22q22 -22 21 -50q0 -31 -21 -51q-22 -20 -50 -21q-29 0 -50 21q-20 20 -20 51q0 28 20 50zM891 26 q-92 -40 -197 -40q-100 0 -193 40t-165 113q-72 70 -110 164t-38 199v829h93v-829q0 -86 31 -164q32 -78 89 -135q59 -59 136 -91q76 -32 157 -32q84 0 160 32t135 91q57 57 89 135t32 164v829h92v-829q0 -104 -38 -199q-38 -94 -109 -164q-72 -73 -164 -113z" glyph-name="Udieresis" horiz-adv-x="1386" unicode="Ü"/><glyph d="M606 1468l168 207h168l-229 -207h-107zM735 561l525 770h110l-590 -870v-461h-92v461l-590 870h111z" glyph-name="Yacute" horiz-adv-x="1468" unicode="Ý"/><glyph d="M1049.5 572q66.5 -87 66.5 -197q0 -72 -31.5 -140.5t-89.5 -121.5q-63 -53 -146 -83t-175 -30h-193v92h193q104 0 184 41t123 105.5t43 136.5q0 82 -50 145.5t-120 93.5q-98 43 -248 43h-125v95h66q72 0 134 32.5t99 89t37 121.5q0 66 -36 121t-98 88t-136 33 q-72 0 -134.5 -33t-98 -88t-35.5 -121v-995h-93v993q0 90 48.5 168t131.5 123t181 45t181 -45t132 -122t49 -167q0 -78 -35.5 -145.5t-97.5 -114.5q72 -14 115 -35q92 -41 158.5 -128z" glyph-name="germandbls" horiz-adv-x="1230" unicode="ß"/><glyph d="M641 1468l-229 207h168l165 -207h-104zM362 338l-157 -338h-103l627 1348l592 -1348h-100l-150 338h-709zM725 1120l-319 -690h624z" glyph-name="agrave" unicode="à"/><glyph d="M610 1468l168 207h168l-229 -207h-107zM362 338l-157 -338h-103l627 1348l592 -1348h-100l-150 338h-709zM725 1120l-319 -690h624z" glyph-name="aacute" unicode="á"/><glyph d="M932 1468h-105l-145 131l-145 -131h-105l166 207h166zM362 338l-157 -338h-103l627 1348l592 -1348h-100l-150 338h-709zM725 1120l-319 -690h624z" glyph-name="acircumflex" unicode="â"/><glyph d="M432 1492q-14 -17 -18 -24l-78 50q4 8 26 34q23 27 62 55t88 35q16 4 47 5q78 0 150 -52q47 -35 100 -34q18 0 27 2q33 6 59 25q27 19 42 37q15 17 19 24l76 -50q-2 -2 -44 -54t-136 -70q-14 -4 -45 -5q-78 0 -150 52q-49 35 -100 34q-18 0 -27 -2q-31 -6 -57 -25 q-27 -20 -41 -37zM362 338l-157 -338h-103l627 1348l592 -1348h-100l-150 338h-709zM725 1120l-319 -690h624z" glyph-name="atilde" unicode="ã"/><glyph d="M432 1590q20 22 51 22q29 0 51 -22t21 -50q0 -31 -21 -51q-22 -20 -51 -21q-29 0 -50 21q-22 20 -21 51q0 28 20 50zM813 1590q20 22 49 22t50 -22q22 -22 22 -50q0 -31 -22 -51t-50 -21q-29 0 -49 21q-20 20 -20 51q0 28 20 50zM362 338l-157 -338h-103l627 1348 l592 -1348h-100l-150 338h-709zM725 1120l-319 -690h624z" glyph-name="adieresis" unicode="ä"/><glyph d="M811 1522q-53 -53 -127 -54q-76 0 -128 54q-52 53 -52 127q0 76 52 129t128 53q74 0 127 -53t53 -129q0 -74 -53 -127zM748 1714q-27 27 -64 27q-39 0 -64 -27q-26 -27 -26 -65q0 -37 26 -64t64 -26q37 0 64 26q27 27 26 64q1 38 -26 65zM362 338l-157 -338h-103 l627 1348l592 -1348h-100l-150 338h-709zM725 1120l-319 -690h624z" glyph-name="aring" unicode="å"/><glyph d="M1769 1237h-768v-524h598v-95h-598v-526h768v-92h-862v365h-532l-170 -365h-103l617 1331h1050v-94zM418 459h489v778h-129z" glyph-name="ae" horiz-adv-x="1953" unicode="æ"/><glyph d="M1067 52.5q-137 -66.5 -291 -66.5q-182 0 -337.5 92t-246 248.5t-90.5 341.5q0 184 90.5 339.5t246 248t337.5 92.5q141 0 271.5 -58.5t228.5 -165.5l-72 -63q-82 92 -193.5 143t-234.5 51q-158 0 -291 -78.5t-211.5 -214t-78.5 -294.5q0 -160 78.5 -295t211.5 -214 t291 -79q131 0 249 57.5t202 159.5l73 -57q-96 -121 -233 -187.5zM891 -268q-51 -39 -119 -39t-117 39q-27 18 -41 44.5t-14 55.5h80q0 -23 27.5 -41t64.5 -18t65.5 18.5t28.5 40.5q0 25 -27.5 42t-66.5 17h-39v109h80v-33q47 -10 78 -33q25 -18 39 -45.5t14 -56.5 t-14 -55.5t-39 -44.5z" glyph-name="ccedilla" horiz-adv-x="1402" unicode="ç"/><glyph d="M557 1468l-229 207h168l166 -207h-105zM1049 0h-863v1331h863v-94h-770v-524h600v-95h-600v-522h770v-96z" glyph-name="egrave" horiz-adv-x="1232" unicode="è"/><glyph d="M506 1468l168 207h168l-230 -207h-106zM1049 0h-863v1331h863v-94h-770v-524h600v-95h-600v-522h770v-96z" glyph-name="eacute" horiz-adv-x="1232" unicode="é"/><glyph d="M842 1468h-105l-145 131l-146 -131h-104l166 207h166zM1049 0h-863v1331h863v-94h-770v-524h600v-95h-600v-522h770v-96z" glyph-name="ecircumflex" horiz-adv-x="1232" unicode="ê"/><glyph d="M354 1590q20 22 52 22q29 0 50 -22q22 -22 21 -50q0 -31 -21 -51q-22 -20 -50 -21q-29 0 -51 21q-22 20 -21 51q0 28 20 50zM735 1590q20 22 49 22t51 -22t21 -50q0 -31 -21 -51q-22 -20 -51 -21q-29 0 -49 21q-20 20 -20 51q0 28 20 50zM1049 0h-863v1331h863v-94h-770 v-524h600v-95h-600v-522h770v-96z" glyph-name="edieresis" horiz-adv-x="1232" unicode="ë"/><glyph d="M311 0h-94v1331h94v-1331zM209 1446l-229 205h167l166 -205h-104z" glyph-name="igrave" horiz-adv-x="524" unicode="ì"/><glyph d="M309 0h-94v1331h94v-1331zM211 1446l168 205h168l-230 -205h-106z" glyph-name="iacute" horiz-adv-x="526" unicode="í"/><glyph d="M299 0h-92v1331h92v-1331zM506 1446h-105l-145 131l-145 -131h-105l166 205h166z" glyph-name="icircumflex" horiz-adv-x="512" unicode="î"/><glyph d="M299 0h-92v1331h92v-1331zM17.5 1566.5q21.5 20.5 50.5 20.5t50 -20.5t21 -48.5q0 -31 -21.5 -51.5t-49.5 -20.5q-29 0 -50.5 20.5t-21.5 51.5q0 28 21.5 48.5zM397.5 1566.5q20.5 20.5 48.5 20.5q29 0 50.5 -20.5t21.5 -48.5q0 -31 -21.5 -51.5t-50.5 -20.5t-49 20.5 t-20 51.5q0 28 20.5 48.5z" glyph-name="idieresis" horiz-adv-x="514" unicode="ï"/><glyph d="M403 1492q-14 -17 -18 -24l-78 50q4 8 27 34q23 27 61 55q39 28 88 35q16 4 47 5q78 0 150 -52q47 -35 100 -34q18 0 27 2q33 6 59 25q27 19 42 37q15 17 20 24l76 -50q-2 -2 -45 -54q-42 -52 -136 -70q-14 -4 -45 -5q-78 0 -149 52q-49 35 -101 34q-18 0 -26 -2 q-31 -6 -58 -25q-27 -20 -41 -37zM1202 -23l-921 1104v-1081h-93v1348l922 -1102v1085h92v-1354z" glyph-name="ntilde" horiz-adv-x="1388" unicode="ñ"/><glyph d="M674 1468l-230 207h168l166 -207h-104zM1114 77q-156 -91 -338 -91t-338 91t-245 248q-90 157 -91 341q0 184 91 341q90 157 245 247q156 91 338 92q182 0 338 -92q156 -91 246 -247q90 -157 90 -341t-90 -341t-246 -248zM1067 1172q-133 79 -291 79t-291 -79t-212 -213 t-78 -293q0 -160 78 -294q79 -134 212 -213t291 -79t291 79t211 213t78 294t-78 293q-78 134 -211 213z" glyph-name="ograve" horiz-adv-x="1550" unicode="ò"/><glyph d="M659 1468l168 207h168l-229 -207h-107zM1114 77q-156 -91 -338 -91t-338 91t-245 248q-90 157 -91 341q0 184 91 341q90 157 245 247q156 91 338 92q182 0 338 -92q156 -91 246 -247q90 -157 90 -341t-90 -341t-246 -248zM1067 1172q-133 79 -291 79t-291 -79t-212 -213 t-78 -293q0 -160 78 -294q79 -134 212 -213t291 -79t291 79t211 213t78 294t-78 293q-78 134 -211 213z" glyph-name="oacute" horiz-adv-x="1550" unicode="ó"/><glyph d="M975 1468h-105l-145 131l-145 -131h-105l166 207h166zM1114 77q-156 -91 -338 -91t-338 91t-245 248q-90 157 -91 341q0 184 91 341q90 157 245 247q156 91 338 92q182 0 338 -92q156 -91 246 -247q90 -157 90 -341t-90 -341t-246 -248zM1067 1172q-133 79 -291 79 t-291 -79t-212 -213t-78 -293q0 -160 78 -294q79 -134 212 -213t291 -79t291 79t211 213t78 294t-78 293q-78 134 -211 213z" glyph-name="ocircumflex" horiz-adv-x="1550" unicode="ô"/><glyph d="M477 1492q-14 -17 -18 -24l-78 50q4 8 27 34q23 27 61 55q39 28 88 35q16 4 47 5q78 0 150 -52q47 -35 100 -34q18 0 27 2q33 6 59 25q27 19 42 37q15 17 19 24l76 -50q-2 -2 -44 -54t-136 -70q-14 -4 -45 -5q-78 0 -150 52q-49 35 -100 34q-18 0 -27 -2q-31 -6 -57 -25 q-27 -20 -41 -37zM1114 77q-156 -91 -338 -91t-338 91t-245 248q-90 157 -91 341q0 184 91 341q90 157 245 247q156 91 338 92q182 0 338 -92q156 -91 246 -247q90 -157 90 -341t-90 -341t-246 -248zM1067 1172q-133 79 -291 79t-291 -79t-212 -213t-78 -293q0 -160 78 -294 q79 -134 212 -213t291 -79t291 79t211 213t78 294t-78 293q-78 134 -211 213z" glyph-name="otilde" horiz-adv-x="1550" unicode="õ"/><glyph d="M479 1590q20 22 51 22q29 0 51 -22t21 -50q0 -31 -21 -51q-22 -20 -51 -21q-29 0 -50 21q-22 20 -21 51q0 28 20 50zM860 1590q20 22 49 22t50 -22q22 -22 22 -50q0 -31 -22 -51t-50 -21q-29 0 -49 21q-20 20 -20 51q0 28 20 50zM1114 77q-156 -91 -338 -91t-338 91 t-245 248q-90 157 -91 341q0 184 91 341q90 157 245 247q156 91 338 92q182 0 338 -92q156 -91 246 -247q90 -157 90 -341t-90 -341t-246 -248zM1067 1172q-133 79 -291 79t-291 -79t-212 -213t-78 -293q0 -160 78 -294q79 -134 212 -213t291 -79t291 79t211 213t78 294 t-78 293q-78 134 -211 213z" glyph-name="odieresis" horiz-adv-x="1550" unicode="ö"/><glyph d="M1372 986.5q78 -146.5 78 -316.5q0 -184 -90 -340t-244.5 -247t-339.5 -91q-164 0 -299 69l-39 -61h-108l65 109q-135 94 -214 241.5t-79 319.5q0 184 90.5 340.5t245 248t338.5 91.5q162 0 305 -74l33 53h109l-62 -102q133 -94 211 -240.5zM261.5 398 q66.5 -126 180.5 -208l592 1006q-123 61 -258 61q-158 0 -291 -78.5t-211.5 -214t-78.5 -294.5q0 -146 66.5 -272zM1067 163q133 79 211 213t78 294q0 145 -64.5 269t-177.5 206l-592 -1002q115 -59 254 -59q158 0 291 79z" glyph-name="oslash" horiz-adv-x="1550" unicode="ø"/><glyph d="M602 1468l-229 207h168l166 -207h-105zM891 26q-92 -40 -197 -40q-100 0 -193 40t-165 113q-72 70 -110 164t-38 199v829h93v-829q0 -86 31 -164q32 -78 89 -135q59 -59 136 -91q76 -32 157 -32q84 0 160 32t135 91q57 57 89 135t32 164v829h92v-829q0 -104 -38 -199 q-38 -94 -109 -164q-72 -73 -164 -113z" glyph-name="ugrave" horiz-adv-x="1386" unicode="ù"/><glyph d="M557 1468l168 207h168l-229 -207h-107zM891 26q-92 -40 -197 -40q-100 0 -193 40t-165 113q-72 70 -110 164t-38 199v829h93v-829q0 -86 31 -164q32 -78 89 -135q59 -59 136 -91q76 -32 157 -32q84 0 160 32t135 91q57 57 89 135t32 164v829h92v-829q0 -104 -38 -199 q-38 -94 -109 -164q-72 -73 -164 -113z" glyph-name="uacute" horiz-adv-x="1386" unicode="ú"/><glyph d="M901 1468h-104l-146 131l-145 -131h-105l166 207h166zM891 26q-92 -40 -197 -40q-100 0 -193 40t-165 113q-72 70 -110 164t-38 199v829h93v-829q0 -86 31 -164q32 -78 89 -135q59 -59 136 -91q76 -32 157 -32q84 0 160 32t135 91q57 57 89 135t32 164v829h92v-829 q0 -104 -38 -199q-38 -94 -109 -164q-72 -73 -164 -113z" glyph-name="ucircumflex" horiz-adv-x="1386" unicode="û"/><glyph d="M406 1590q20 22 51 22q29 0 50 -22q22 -22 21 -50q0 -31 -21 -51q-22 -20 -50 -21q-29 0 -50 21q-22 20 -22 51q1 28 21 50zM786 1590q20 22 50 22q29 0 50 -22q22 -22 21 -50q0 -31 -21 -51q-22 -20 -50 -21q-29 0 -50 21q-20 20 -20 51q0 28 20 50zM891 26 q-92 -40 -197 -40q-100 0 -193 40t-165 113q-72 70 -110 164t-38 199v829h93v-829q0 -86 31 -164q32 -78 89 -135q59 -59 136 -91q76 -32 157 -32q84 0 160 32t135 91q57 57 89 135t32 164v829h92v-829q0 -104 -38 -199q-38 -94 -109 -164q-72 -73 -164 -113z" glyph-name="udieresis" horiz-adv-x="1386" unicode="ü"/><glyph d="M606 1468l168 207h168l-229 -207h-107zM735 561l525 770h110l-590 -870v-461h-92v461l-590 870h111z" glyph-name="yacute" horiz-adv-x="1468" unicode="ý"/><glyph d="M449 1590q20 22 51 22q29 0 50 -22q22 -22 21 -50q0 -31 -21 -51q-22 -20 -50 -21q-29 0 -50 21q-22 20 -22 51q1 28 21 50zM829 1590q20 22 50 22q29 0 50 -22q22 -22 21 -50q0 -31 -21 -51q-22 -20 -50 -21q-29 0 -50 21q-20 20 -20 51q0 28 20 50zM735 561l525 770 h110l-590 -870v-461h-92v461l-590 870h111z" glyph-name="ydieresis" horiz-adv-x="1468" unicode="ÿ"/><glyph d="M1348 1239v-524h598v-97h-598v-526h766v-92h-859v193q-94 -94 -218 -147.5t-261 -53.5q-184 0 -338.5 91t-245 246.5t-90.5 340.5q0 184 90.5 340.5t245 248t338.5 91.5q137 0 261 -53.5t218 -147.5v182h859v-92h-766zM1048 152.5q126 68.5 207 185.5v666 q-82 117 -207.5 185t-271.5 68q-158 0 -291 -78.5t-211.5 -214t-78.5 -294.5q0 -160 78.5 -294t211.5 -213t291 -79q146 0 272 68.5z" glyph-name="OE" horiz-adv-x="2297" unicode="Œ"/><glyph d="M1348 1239v-524h598v-97h-598v-526h766v-92h-859v193q-94 -94 -218 -147.5t-261 -53.5q-184 0 -338.5 91t-245 246.5t-90.5 340.5q0 184 90.5 340.5t245 248t338.5 91.5q137 0 261 -53.5t218 -147.5v182h859v-92h-766zM1048 152.5q126 68.5 207 185.5v666 q-82 117 -207.5 185t-271.5 68q-158 0 -291 -78.5t-211.5 -214t-78.5 -294.5q0 -160 78.5 -294t211.5 -213t291 -79q146 0 272 68.5z" glyph-name="oe" horiz-adv-x="2297" unicode="œ"/><glyph d="M1096 1468h-105l-145 131l-146 -131h-104l166 207h166zM1278 264l330 1067h98l-420 -1354l-379 992l-383 -992l-422 1354h97l333 -1071l375 967z" glyph-name="Wcircumflex" horiz-adv-x="1808" unicode="Ŵ"/><glyph d="M1096 1468h-105l-145 131l-146 -131h-104l166 207h166zM1278 264l330 1067h98l-420 -1354l-379 992l-383 -992l-422 1354h97l333 -1071l375 967z" glyph-name="wcircumflex" horiz-adv-x="1808" unicode="ŵ"/><glyph d="M938 1468h-104l-146 131l-145 -131h-105l166 207h166zM735 561l525 770h110l-590 -870v-461h-92v461l-590 870h111z" glyph-name="Ycircumflex" horiz-adv-x="1468" unicode="Ŷ"/><glyph d="M938 1468h-104l-146 131l-145 -131h-105l166 207h166zM735 561l525 770h110l-590 -870v-461h-92v461l-590 870h111z" glyph-name="ycircumflex" horiz-adv-x="1468" unicode="ŷ"/><glyph d="M449 1590q20 22 51 22q29 0 50 -22q22 -22 21 -50q0 -31 -21 -51q-22 -20 -50 -21q-29 0 -50 21q-22 20 -22 51q1 28 21 50zM829 1590q20 22 50 22q29 0 50 -22q22 -22 21 -50q0 -31 -21 -51q-22 -20 -50 -21q-29 0 -50 21q-20 20 -20 51q0 28 20 50zM735 561l525 770 h110l-590 -870v-461h-92v461l-590 870h111z" glyph-name="Ydieresis" horiz-adv-x="1468" unicode="Ÿ"/><glyph d="M-127 1468l-229 207h168l165 -207h-104z" glyph-name="gravecomb" horiz-adv-x="0" unicode="̀"/><glyph d="M-358 1468l168 207h167l-229 -207h-106z" glyph-name="acutecomb" horiz-adv-x="0" unicode="́"/><glyph d="M-20 1468h-105l-145 131l-146 -131h-104l166 207h166z" glyph-name="uni0302" horiz-adv-x="0" unicode="̂"/><glyph d="M-622.5 1492q-14.5 -17 -18.5 -24l-78 50q4 8 26.5 34.5t61.5 54t88 35.5q16 4 47 5q78 0 150 -52q47 -35 100 -34q18 0 27 2q33 6 59.5 25.5t42 36.5t19.5 24l75 -50q-2 -2 -44 -54t-136 -70q-14 -4 -45 -5q-78 0 -149 52q-49 35 -101 34q-18 0 -26 -2 q-31 -6 -57.5 -25.5t-41 -36.5z" glyph-name="tildecomb" horiz-adv-x="0" unicode="̃"/><glyph d="M-145.5 1590.5q20.5 21.5 49.5 21.5q31 0 52 -22.5t21 -51.5t-21.5 -49.5t-51.5 -20.5q-29 0 -49.5 20.5t-20.5 49.5q0 31 20.5 52.5z" glyph-name="uni0307" horiz-adv-x="0" unicode="̇"/><glyph d="M-479.5 1590.5q20.5 21.5 51.5 21.5q29 0 50.5 -21.5t21.5 -50.5q0 -31 -21.5 -51.5t-50.5 -20.5t-50.5 20.5t-21.5 51.5q0 29 20.5 50.5zM-98.5 1590.5q20.5 21.5 49.5 21.5t50.5 -21.5t21.5 -50.5q0 -31 -21.5 -51.5t-50.5 -20.5t-49.5 20.5t-20.5 51.5q0 29 20.5 50.5 z" glyph-name="uni0308" horiz-adv-x="0" unicode="̈"/><glyph d="M-78 1521.5q-53 -53.5 -127 -53.5q-76 0 -128 53.5t-52 127.5q0 76 52 129t128 53q74 0 127 -53.5t53 -128.5q0 -74 -53 -127.5zM-141.5 1714.5q-26.5 26.5 -63.5 26.5q-39 0 -64.5 -26.5t-25.5 -65.5q0 -37 25.5 -63.5t64.5 -26.5q37 0 63.5 26.5t26.5 63.5 q0 39 -26.5 65.5z" glyph-name="uni030A" horiz-adv-x="0" unicode="̊"/><glyph d="M-567 -268q-51 -39 -119 -39t-117 39q-27 18 -41 44.5t-14 55.5h80q0 -23 27.5 -41t64.5 -18t65.5 18.5t28.5 40.5q0 25 -27.5 42t-66.5 17h-39v109h80v-33q47 -10 78 -33q25 -18 39 -45.5t14 -56.5t-14 -55.5t-39 -44.5z" glyph-name="uni0327" horiz-adv-x="0" unicode="̧"/><glyph d="M-569 618h-803v95h803v-95z" glyph-name="uni0335" horiz-adv-x="0" unicode="̵"/><glyph d="M-1362 0l784 1331h107l-782 -1331h-109z" glyph-name="uni0338" horiz-adv-x="0" unicode="̸"/><glyph d="M807 1468l-229 207h167l166 -207h-104zM1278 264l330 1067h98l-420 -1354l-379 992l-383 -992l-422 1354h97l333 -1071l375 967z" glyph-name="Wgrave" horiz-adv-x="1808" unicode="Ẁ"/><glyph d="M807 1468l-229 207h167l166 -207h-104zM1278 264l330 1067h98l-420 -1354l-379 992l-383 -992l-422 1354h97l333 -1071l375 967z" glyph-name="wgrave" horiz-adv-x="1808" unicode="ẁ"/><glyph d="M780 1468l168 207h168l-229 -207h-107zM1278 264l330 1067h98l-420 -1354l-379 992l-383 -992l-422 1354h97l333 -1071l375 967z" glyph-name="Wacute" horiz-adv-x="1808" unicode="Ẃ"/><glyph d="M780 1468l168 207h168l-229 -207h-107zM1278 264l330 1067h98l-420 -1354l-379 992l-383 -992l-422 1354h97l333 -1071l375 967z" glyph-name="wacute" horiz-adv-x="1808" unicode="ẃ"/><glyph d="M608 1590q20 22 51 22q29 0 51 -22t21 -50q0 -31 -21 -51q-22 -20 -51 -21q-29 0 -50 21q-22 20 -21 51q0 28 20 50zM989 1590q20 22 49 22t51 -22t21 -50q0 -31 -21 -51q-22 -20 -51 -21q-29 0 -49 21q-20 20 -20 51q0 28 20 50zM1278 264l330 1067h98l-420 -1354 l-379 992l-383 -992l-422 1354h97l333 -1071l375 967z" glyph-name="Wdieresis" horiz-adv-x="1808" unicode="Ẅ"/><glyph d="M608 1590q20 22 51 22q29 0 51 -22t21 -50q0 -31 -21 -51q-22 -20 -51 -21q-29 0 -50 21q-22 20 -21 51q0 28 20 50zM989 1590q20 22 49 22t51 -22t21 -50q0 -31 -21 -51q-22 -20 -51 -21q-29 0 -49 21q-20 20 -20 51q0 28 20 50zM1278 264l330 1067h98l-420 -1354 l-379 992l-383 -992l-422 1354h97l333 -1071l375 967z" glyph-name="wdieresis" horiz-adv-x="1808" unicode="ẅ"/><glyph d="M653 1468l-229 207h168l166 -207h-105zM735 561l525 770h110l-590 -870v-461h-92v461l-590 870h111z" glyph-name="Ygrave" horiz-adv-x="1468" unicode="Ỳ"/><glyph d="M653 1468l-229 207h168l166 -207h-105zM735 561l525 770h110l-590 -870v-461h-92v461l-590 870h111z" glyph-name="ygrave" horiz-adv-x="1468" unicode="ỳ"/><glyph d="M940 618h-805v95h805v-95z" glyph-name="endash" horiz-adv-x="1075" unicode="–"/><glyph d="M160 1135l67 196h107l-103 -196h-71z" glyph-name="quoteleft" horiz-adv-x="471" unicode="‘"/><glyph d="M160 1135l67 196h107l-103 -196h-71z" glyph-name="quoteright" horiz-adv-x="471" unicode="’"/><glyph d="M125 -100l68 198h106l-102 -198h-72z" glyph-name="quotesinglbase" horiz-adv-x="458" unicode="‚"/><glyph d="M381 1135l70 196h104l-100 -196h-74zM170 1135l70 196h104l-100 -196h-74z" glyph-name="quotedblleft" horiz-adv-x="724" unicode="“"/><glyph d="M381 1135l70 196h104l-100 -196h-74zM170 1135l70 196h104l-100 -196h-74z" glyph-name="quotedblright" horiz-adv-x="724" unicode="”"/><glyph d="M125 -100l68 198h106l-102 -198h-72zM125 -100h72l102 198h-106z" glyph-name="quotedblbase" horiz-adv-x="458" unicode="„"/><glyph d="M180.5 20.5q-20.5 20.5 -20.5 49.5q0 31 20.5 52t48.5 21q29 0 50.5 -22.5t21.5 -50.5q0 -29 -21.5 -49.5t-50.5 -20.5q-28 0 -48.5 20.5zM465.5 20.5q-21.5 20.5 -21.5 49.5q0 31 21.5 52t52.5 21q27 0 48.5 -22.5t21.5 -50.5q0 -27 -20.5 -48.5t-49.5 -21.5 q-31 0 -52.5 20.5zM751.5 20.5q-20.5 20.5 -20.5 49.5t21.5 51t50.5 22t49 -22.5t20 -50.5q0 -29 -20.5 -49.5t-48.5 -20.5q-31 0 -51.5 20.5z" glyph-name="ellipsis" horiz-adv-x="1032" unicode="…"/><glyph d="M315 668l506 -369v-115l-661 484l661 475v-113z" glyph-name="guilsinglleft" horiz-adv-x="980" unicode="‹"/><glyph d="M160 1032v117l663 -481l-663 -480v115l506 365z" glyph-name="guilsinglright" horiz-adv-x="983" unicode="›"/><glyph d="M135 0l785 1331h108l-784 -1331h-109z" glyph-name="fraction" horiz-adv-x="1163" unicode="⁄"/><glyph d="M651.5 1147.5q-147.5 -103.5 -211.5 -268.5h545v-95h-571q-14 -55 -15 -118q0 -61 13 -117h573v-92h-547q63 -168 211 -272.5t332 -104.5h195v-94h-195q-147 0 -278.5 60t-225.5 168t-137 243h-238v92h215q-10 66 -10 117q0 53 10 118h-215v95h238q43 135 138 241.5 t225.5 166t277.5 59.5h195v-95h-195q-182 0 -329.5 -103.5z" glyph-name="Euro" horiz-adv-x="1359" unicode="€"/><glyph glyph-name="trademark" horiz-adv-x="1361" unicode="™"/><glyph d="M940 618h-805v95h805v-95z" glyph-name="minus" horiz-adv-x="1075" unicode="−"/><glyph d="M723 1348l596 -1348h-102l-496 1120l-516 -1120h-103z" glyph-name="glyph203" horiz-adv-x="1421"/><glyph d="M723 1348l596 -1348h-102l-496 1120l-516 -1120h-103z" glyph-name="glyph204" horiz-adv-x="1421"/></font>
</defs>
</svg>
