<?xml version="1.0" standalone="no"?>
<!DOCTYPE svg PUBLIC "-//W3C//DTD SVG 1.1//EN" "http://www.w3.org/Graphics/SVG/1.1/DTD/svg11.dtd">
<svg xmlns="http://www.w3.org/2000/svg"><metadata>This SVG WebFont was generated by YouWorkForThem.
Ellen Luff</metadata><defs><font horiz-adv-x="1433" id="ywftsvg"><font-face ascent="1638" bbox="-1419 -410 2163 1833" cap-height="1331" descent="-410" font-family="" font-stretch="normal" font-weight="300" panose-1="0 0 4 0 0 0 0 0 0 0" underline-position="0" underline-thickness="0" unicode-range="U+0020-2212" units-per-em="2048" x-height="1331"/><missing-glyph d="M756 1434v-1844h-584v1844h584zM614 176h-307v-209h307v209zM553 117v-88h-184v88h184zM614 496h-184v-103h62v41h61v-86h-184v148h-62v-209h307v209zM614 721h-61v-123h-246v-61h307v184zM614 831h-307v-61h123v-68h-123v-61h185v129h122v61zM430 1010v-66h-61v66h61z M492 1073h-185v-192h307v63h-122v129zM614 1311h-305v-62h121v-67h-123v-62h307v62h-122v67h122v62zM614 -74h-307v-61h129l-129 -86v-62h307v62h-188l129 86h59v61z" horiz-adv-x="921"/><glyph d="M756 1434v-1844h-584v1844h584zM614 176h-307v-209h307v209zM553 117v-88h-184v88h184zM614 496h-184v-103h62v41h61v-86h-184v148h-62v-209h307v209zM614 721h-61v-123h-246v-61h307v184zM614 831h-307v-61h123v-68h-123v-61h185v129h122v61zM430 1010v-66h-61v66h61z M492 1073h-185v-192h307v63h-122v129zM614 1311h-305v-62h121v-67h-123v-62h307v62h-122v67h122v62zM614 -74h-307v-61h129l-129 -86v-62h307v62h-188l129 86h59v61z" glyph-name=".notdef" horiz-adv-x="921"/><glyph glyph-name="glyph1" horiz-adv-x="0"/><glyph glyph-name="glyph2" horiz-adv-x="682"/><glyph glyph-name="space" horiz-adv-x="710" unicode=" "/><glyph d="M268 1331v-1104h-43v1104h43zM214 76.5q13 13.5 32 13.5q20 0 32.5 -12t12.5 -33q0 -18 -12.5 -31.5t-32.5 -13.5q-16 0 -30.5 13.5t-14.5 31.5t13 31.5z" glyph-name="exclam" horiz-adv-x="491" unicode="!"/><glyph d="M362 1157l62 174h92l-90 -174h-64zM178 1157l60 174h94l-92 -174h-62z" glyph-name="quotedbl" horiz-adv-x="692" unicode="&quot;"/><glyph d="M1567 963h-332l-92 -594h332l-9 -39h-331l-52 -330h-43l54 330h-602l-50 -330h-43l50 330h-330l6 39h332l92 594h-332l6 43h332l51 325h41l-49 -325h598l53 325h43l-53 -325h334zM1100 369l92 594h-600l-92 -594h600z" glyph-name="numbersign" horiz-adv-x="1691" unicode="#"/><glyph d="M405.5 1256q-110.5 -44 -149.5 -171q-12 -39 -12 -79q0 -92 65.5 -166t184.5 -113l290 -86q166 -51 238 -164q45 -72 45 -151q0 -41 -16 -95q-39 -129 -160 -190q-102 -55 -238 -55h-8v-224h-41v224q-252 18 -438 192l29 31q188 -180 458 -180q98 0 208 43t149 172 q12 41 12 80q0 92 -65.5 165.5t-182.5 110.5l-291 86q-164 49 -237 166q-45 74 -45 154q0 49 14 92q43 131 162 190q94 51 227 55v228h41v-230q256 -6 457 -190l-29 -31q-197 180 -459 180q-98 0 -208.5 -44z" glyph-name="dollar" horiz-adv-x="1267" unicode="$"/><glyph d="M1157 84q-70 -70 -168 -70t-167.5 70t-69.5 170q0 98 69.5 169t167.5 71t168 -71t70 -169q0 -100 -70 -170zM1128.5 394.5q-57.5 58.5 -139.5 58.5q-80 0 -137 -58.5t-57 -140.5t57 -140.5t137 -58.5q82 0 139.5 58.5t57.5 140.5t-57.5 140.5zM573.5 914.5 q-69.5 -70.5 -167.5 -70.5q-100 0 -170 70.5t-70 170.5t69.5 170t170.5 70q98 0 167.5 -69.5t69.5 -170.5q0 -100 -69.5 -170.5zM543.5 1224.5q-56.5 57.5 -137.5 57.5q-82 0 -139.5 -57.5t-57.5 -139.5q0 -84 57.5 -141t139.5 -57t138 57t56 141q0 82 -56.5 139.5zM279 0 l784 1331h49l-786 -1331h-47z" glyph-name="percent" horiz-adv-x="1392" unicode="%"/><glyph d="M1300 412l-106 -86l-29 28l105 88zM851 373q255 -258 368 -373h-60l-166 164l-8 -8t-6 -4q-94 -74 -176 -120t-168 -46q-117 0 -213 46t-152.5 125t-56.5 173q0 125 72.5 200.5t212.5 139.5l-68 67q-49 47 -89 120t-40 165q0 135 98 229q47 45 109.5 68.5t130.5 23.5 q137 0 240 -92q98 -94 98 -229q0 -72 -53.5 -143.5t-147.5 -126.5l-28 30q88 51 137 115t49 125q0 57 -22.5 108.5t-65.5 90.5q-39 39 -93.5 59t-113.5 20q-121 0 -211 -79q-41 -39 -63.5 -90.5t-22.5 -108.5q0 -133 117 -256q137 -135 392 -393zM965 193l-437 444 q-137 -61 -204.5 -128t-67.5 -179q0 -82 50 -151.5t137 -109.5t192 -40q78 0 152.5 42t164.5 113l6 2z" glyph-name="ampersand" horiz-adv-x="1490" unicode="&amp;"/><glyph d="M166 1157l59 174h94l-90 -174h-63z" glyph-name="quotesingle" horiz-adv-x="460" unicode="'"/><glyph d="M532 33v-43q-131 18 -239 116q-59 55 -93 124t-34 139v592q0 70 32.5 138t94.5 126q104 94 239 116v-43q-123 -23 -210 -104q-55 -49 -84 -110.5t-29 -122.5v-592q0 -61 28.5 -122t84.5 -110q91 -86 210 -104z" glyph-name="parenleft" horiz-adv-x="698" unicode="("/><glyph d="M166 33q119 18 207 104q55 49 84.5 109.5t29.5 122.5v592q0 61 -29.5 122.5t-84.5 110.5q-84 82 -207 104v43q63 -10 124.5 -40.5t110.5 -75.5q63 -57 96 -125t33 -139v-592q0 -70 -33.5 -138.5t-95.5 -124.5q-49 -47 -110.5 -77.5t-124.5 -38.5v43z" glyph-name="parenright" horiz-adv-x="696" unicode=")"/><glyph d="M279 592l-33 24l241 334l-393 129l15 39l391 -127l2 412h39v-412l393 127l12 -39l-391 -129l242 -334l-33 -24l-244 334z" glyph-name="asterisk" horiz-adv-x="1040" unicode="*"/><glyph d="M1004 690v-43h-398v-397h-43v397h-397v43h397v397h43v-397h398z" glyph-name="plus" horiz-adv-x="1169" unicode="+"/><glyph d="M131 -88l57 176h97l-90 -176h-64z" glyph-name="comma" horiz-adv-x="448" unicode=","/><glyph d="M1004 647h-838v41h838v-41z" glyph-name="hyphen" horiz-adv-x="1169" unicode="-"/><glyph d="M184.5 18.5q-18.5 18.5 -18.5 44.5q0 25 18.5 43.5t44.5 18.5q25 0 43.5 -18.5t18.5 -43.5q0 -27 -18.5 -45t-43.5 -18q-26 0 -44.5 18.5z" glyph-name="period" horiz-adv-x="456" unicode="."/><glyph d="M141 0l787 1331h49l-784 -1331h-52z" glyph-name="slash" horiz-adv-x="1118" unicode="/"/><glyph d="M773 17.5q-77 -31.5 -159 -31.5q-80 0 -157.5 31.5t-139.5 88.5q-61 55 -95 125t-34 138v284v13v12v283q0 70 34 138t95 126q61 57 139.5 87.5t157.5 30.5q82 0 161 -30.5t138 -87.5q61 -57 94 -126t33 -138v-287v-8v-19v-278q0 -70 -33.5 -138.5t-93.5 -124.5 q-63 -57 -140 -88.5zM758.5 1274q-70.5 29 -144.5 29q-72 0 -141.5 -29t-126.5 -80q-53 -49 -84 -110.5t-31 -122.5v-283v-12v-13v-284q0 -59 31 -121t84 -111q57 -51 127 -79.5t141 -28.5q74 0 144.5 28.5t126.5 79.5q55 49 83.5 109.5t28.5 122.5v278v19v8v287 q0 61 -28.5 122.5t-83.5 110.5q-56 51 -126.5 80z" glyph-name="zero" horiz-adv-x="1206" unicode="0"/><glyph d="M94 909l457 437v-1346h-43v1247l-414 -395v57z" glyph-name="one" horiz-adv-x="747" unicode="1"/><glyph d="M490.5 333.5q-175.5 -237.5 -244.5 -333.5h-51q70 96 278.5 382t298.5 400q82 111 82 230q0 14 -4 47q-18 123 -123 194q-82 57 -176 58q-82 0 -163 -43t-150 -127l-64 -76l-33 25q27 35 43.5 54t20.5 25q78 90 167 137.5t177 47.5q104 0 201 -66q59 -39 96 -96t45 -125 q6 -31 6 -59q0 -133 -92 -250q-139 -187 -314.5 -424.5zM940 43h-684l-31 -43h715v43z" glyph-name="two" horiz-adv-x="1081" unicode="2"/><glyph d="M956.5 536q49.5 -87 49.5 -176q0 -102 -58.5 -188t-158 -136t-216.5 -50q-111 0 -206 45t-154 122.5t-70 172.5l41 28q0 -88 53.5 -162.5t142.5 -118.5t193 -44q106 0 195.5 45t142 120.5t52.5 165.5q0 80 -44.5 158t-127.5 144l-84 67l55 55q59 63 83.5 115.5 t24.5 120.5q0 76 -39.5 140.5t-108.5 102t-149 37.5t-148.5 -37.5t-108.5 -102t-40 -140.5h-43q0 88 46.5 162.5t124 117.5t169.5 43t170 -43t124 -117.5t46 -162.5q0 -82 -29.5 -140.5t-90.5 -125.5l-25 -23l47 -35q92 -73 141.5 -160zM184 354l-41 -28q-2 10 -2 34h43v-6z " glyph-name="three" horiz-adv-x="1146" unicode="3"/><glyph d="M1237 371v-41h-367v-330h-41v330h-710l688 1001h63v-985h-41l-2 942l-628 -917h1038z" glyph-name="four" horiz-adv-x="1318" unicode="4"/><glyph d="M819.5 38q-100.5 -52 -219.5 -52q-86 0 -166 25.5t-141 76.5q-59 47 -93 109.5t-34 126.5h43q0 -55 28.5 -107.5t81.5 -95.5q117 -92 281 -92q109 0 199 47t141 127t51 174q0 63 -28.5 122.5t-79.5 106.5q-55 47 -128 71.5t-155 24.5h-381l45 629h789v-43h-748l-41 -543 h336q188 0 311 -108q59 -53 91 -120.5t32 -139.5q0 -106 -57 -196.5t-157.5 -142.5z" glyph-name="five" horiz-adv-x="1159" unicode="5"/><glyph d="M651 1341q-233 -440 -352 -669q121 86 279 86q117 0 217 -51.5t158.5 -138.5t58.5 -189t-58.5 -189.5t-159 -138.5t-216.5 -51q-119 0 -219.5 51t-159 138t-58.5 190q2 61 21.5 121.5t68 154t177.5 328.5q59 104 196 358h47zM382 670q-91 -45 -144.5 -122t-53.5 -169 q0 -90 53.5 -168t143.5 -123t197 -45q106 0 196 45t143.5 123t53.5 168q0 92 -53.5 169t-143.5 122t-196 45q-105 0 -196 -45z" glyph-name="six" horiz-adv-x="1107" unicode="6"/><glyph d="M1077 1331l-698 -1331h-47l676 1292h-877v39h946z" glyph-name="seven" horiz-adv-x="1193" unicode="7"/><glyph d="M921 585.5q85 -98.5 85 -223.5q0 -102 -58.5 -189t-158 -137t-216.5 -50t-216 50t-157.5 137t-58.5 189q0 123 85 222.5t216 136.5q-94 35 -151.5 117t-57.5 182q0 88 46.5 162.5t124 117.5t169.5 43t170 -43t124 -117.5t46 -162.5q0 -100 -58 -181t-153 -118 q134 -37 219 -135.5zM316 879.5q40 -64.5 109 -103.5t148 -39q80 0 149 39t108.5 103.5t39.5 140.5t-39.5 141.5t-108.5 103.5t-149 38t-148.5 -38t-108.5 -103.5t-40 -141.5t40 -140.5zM769 74q89 45 141.5 121.5t52.5 166.5t-52.5 167t-141.5 122t-196 45q-104 0 -194 -45 t-142.5 -121.5t-52.5 -167.5q0 -90 52.5 -166.5t142.5 -121.5t194 -45q107 0 196 45z" glyph-name="eight" horiz-adv-x="1124" unicode="8"/><glyph d="M500 0q254 485 356 678q-125 -86 -278 -86q-119 0 -218.5 51t-159 138t-59.5 192q0 102 59.5 189t160 138.5t217.5 51.5q119 0 218 -51.5t157.5 -138.5t58.5 -189q0 -53 -19.5 -110.5t-73 -162t-198.5 -376.5l-174 -324h-47zM768 680q90 45 145.5 123t57.5 170 q0 90 -53.5 168t-143.5 123t-196 45t-196.5 -45t-144 -123t-53.5 -168q0 -92 53.5 -170t143.5 -123t197 -45q100 0 190 45z" glyph-name="nine" horiz-adv-x="1155" unicode="9"/><glyph d="M184.5 159.5q-18.5 18.5 -18.5 45.5t18.5 45t42.5 18q27 0 45.5 -18.5t18.5 -44.5q0 -27 -18.5 -45.5t-45.5 -18.5q-24 0 -42.5 18.5zM184.5 546.5q-18.5 18.5 -18.5 45.5q0 25 18.5 43t42.5 18q27 0 45.5 -18.5t18.5 -42.5q0 -27 -18.5 -45.5t-45.5 -18.5 q-24 0 -42.5 18.5z" glyph-name="colon" horiz-adv-x="456" unicode=":"/><glyph d="M224.5 366.5q-19.5 18.5 -19.5 45.5q0 25 19.5 44t45.5 19q25 0 43.5 -19.5t18.5 -43.5q0 -27 -18.5 -45.5t-43.5 -18.5q-26 0 -45.5 18.5zM166 -86l61 174h92l-90 -174h-63z" glyph-name="semicolon" horiz-adv-x="497" unicode=";"/><glyph d="M238 666l571 -418v-51l-643 469l643 462v-51z" glyph-name="less" horiz-adv-x="974" unicode="&lt;"/><glyph d="M1004 393h-838v43h838v-43zM1004 901h-838v41h838v-41z" glyph-name="equal" horiz-adv-x="1169" unicode="="/><glyph d="M166 1133l645 -467l-645 -467v51l571 416l-571 415v52z" glyph-name="greater" horiz-adv-x="976" unicode=">"/><glyph d="M596 311v-98h-43v98q0 76 19.5 126t49 82t80.5 73q6 4 56 43q94 76 137 131q70 94 70 205q0 90 -52.5 166.5t-141.5 121t-196 44.5q-106 0 -195 -44.5t-142.5 -121t-53.5 -166.5h-43q0 76 33 144.5t96 121.5q125 109 305 109q86 0 165 -28t141 -81q61 -55 94 -124 t33 -142q0 -125 -78 -228q-39 -51 -88 -93t-60 -50l-53 -41q-51 -43 -75.5 -69.5t-41 -68.5t-16.5 -110zM542.5 63.5q12.5 12.5 32.5 12.5q18 0 32 -13.5t14 -31.5t-14.5 -31.5t-31.5 -13.5q-20 0 -32.5 13t-12.5 32q0 20 12.5 32.5z" glyph-name="question" horiz-adv-x="1196" unicode="?"/><glyph d="M1599.5 967.5q59.5 -142.5 59.5 -299.5q0 -68 -25.5 -128.5t-72.5 -103.5q-41 -41 -97.5 -63.5t-111.5 -22.5q-102 0 -173 58.5t-100 150.5q-31 -53 -83 -84t-111 -31q-92 0 -159 67t-67 159t67 158.5t159 66.5q51 0 98 -24.5t80 -65.5v78h39l2 -248q10 -98 76.5 -170 t171.5 -72q51 0 97 18.5t83 55.5q41 39 63.5 91t22.5 110q0 150 -56.5 284.5t-162.5 237.5q-106 102 -238.5 156.5t-277.5 54.5q-199 0 -368 -99.5t-267 -267.5t-98 -366q0 -199 98 -368t267 -267.5t368 -98.5q127 0 241.5 40t206.5 114h68q-104 -94 -236.5 -145.5 t-279.5 -51.5q-209 0 -388.5 104.5t-284 283t-104.5 389.5t104.5 389t284 282.5t388.5 104.5q154 0 295 -57.5t252 -165.5q110 -111 169.5 -253.5zM1001.5 529q51.5 42 61.5 108v63q-12 66 -62.5 109t-115.5 43q-76 0 -129.5 -54.5t-53.5 -127.5q0 -76 53.5 -129.5 t129.5 -53.5q65 0 116.5 42z" glyph-name="at" horiz-adv-x="1765" unicode="@"/><glyph d="M733 1348l594 -1348h-45l-172 391h-774l-182 -391h-48zM354 432h736l-359 815z" glyph-name="A" unicode="A"/><glyph d="M1047.5 553q64.5 -84 64.5 -191q0 -90 -53 -174t-152.5 -136t-230.5 -52h-481l2 1331h368q180 0 291 -98q47 -45 74.5 -104.5t27.5 -122.5q0 -109 -71 -193q-47 -53 -115 -90l-20 -6q86 -14 139 -39q92 -41 156.5 -125zM238 729h323q59 0 101.5 7t82.5 24q23 8 62 34.5 t73.5 81t34.5 130.5q0 74 -40.5 139t-120.5 106t-189 41h-327v-563zM884 89q89 46 137 120t48 153q0 92 -57.5 167t-137.5 110q-113 47 -268 47h-368v-643h438q119 0 208 46z" glyph-name="B" horiz-adv-x="1230" unicode="B"/><glyph d="M1073 52.5q-137 -66.5 -293 -66.5q-182 0 -336.5 92t-246 248.5t-91.5 341.5q0 184 91.5 340.5t246 248t336.5 91.5q143 0 273.5 -57.5t226.5 -164.5l-31 -28q-90 100 -213 155.5t-256 55.5q-172 0 -316.5 -87t-229 -233.5t-84.5 -320.5t84.5 -320.5t229 -232.5 t316.5 -86q143 0 271.5 62.5t220.5 172.5l35 -24q-97 -121 -234 -187.5z" glyph-name="C" horiz-adv-x="1413" unicode="C"/><glyph d="M828.5 52q-119.5 -52 -261.5 -52h-372v1331h372q291 0 473 -201q82 -90 126 -210.5t44 -251.5q0 -133 -44 -253t-126 -212q-92 -99 -211.5 -151zM238 1288v-1245h329q135 0 248 48t193 140q78 86 119.5 199t41.5 238t-42 237.5t-119 196.5q-82 92 -194 139t-247 47h-329z " glyph-name="D" horiz-adv-x="1329" unicode="D"/><glyph d="M1067 0h-872v1331h872v-43h-829v-600h651v-43h-651v-600h829v-45z" glyph-name="E" horiz-adv-x="1257" unicode="E"/><glyph d="M238 0h-43v1331h870v-43h-827v-600h651v-45h-651v-643z" glyph-name="F" horiz-adv-x="1236" unicode="F"/><glyph d="M1251 637v-637h-473q-182 0 -335.5 91t-243.5 246t-90 337t90 337.5t243.5 246t335.5 90.5q141 0 269.5 -56.5t222.5 -161.5l-31 -28q-88 98 -209 151.5t-252 53.5q-170 0 -314.5 -85t-228 -230.5t-83.5 -317.5t83.5 -316.5t228 -229.5t314.5 -85h430v551h-481v43h524z " glyph-name="G" horiz-adv-x="1466" unicode="G"/><glyph d="M1112 0v645h-872v-645h-43v1331h43v-643h872v643h43v-1331h-43z" glyph-name="H" horiz-adv-x="1351" unicode="H"/><glyph d="M262 0h-43v1331h43v-1331z" glyph-name="I" horiz-adv-x="481" unicode="I"/><glyph d="M683 29q-91 -43 -198 -43q-135 0 -245 75q-111 74 -181 209l37 19q63 -125 164.5 -192.5t224.5 -67.5q98 0 181.5 37.5t142.5 111.5q137 166 137 451v702h43v-702q0 -147 -38 -269t-109 -208q-68 -80 -159 -123z" glyph-name="J" horiz-adv-x="1171" unicode="J"/><glyph d="M1128 0h-55l-467 580l-411 -605v1356h43v-1218l827 1218h49l-485 -717z" glyph-name="K" horiz-adv-x="1245" unicode="K"/><glyph d="M1040 0h-845v1331h38v-1288h807v-43z" glyph-name="L" horiz-adv-x="1210" unicode="L"/><glyph d="M1573 0h-43v1202l-643 -1018l-647 1018v-1202h-43v1348l690 -1086l686 1086v-1348z" glyph-name="M" horiz-adv-x="1769" unicode="M"/><glyph d="M1200 -25l-960 1242v-1217h-43v1348l960 -1239v1222h43v-1356z" glyph-name="N" horiz-adv-x="1392" unicode="N"/><glyph d="M1117.5 78q-154.5 -92 -337.5 -92q-182 0 -336.5 92t-246 248.5t-91.5 341.5q0 184 91.5 340.5t246 248t336.5 91.5t337 -91.5t246 -248t91 -340.5t-91 -341t-245.5 -249zM1098.5 1221q-146.5 86 -318.5 86t-316.5 -86t-229 -232.5t-84.5 -320.5t84.5 -320.5t229 -232.5 t316.5 -86t318.5 86t231.5 232.5t85 320.5t-85 320.5t-231.5 232.5z" glyph-name="O" horiz-adv-x="1560" unicode="O"/><glyph d="M238 0h-43v1331h20h447q117 0 214 -49t153 -132t56 -183q0 -98 -56 -181.5t-154.5 -132.5t-212.5 -49h-424v-604zM238 1288v-643h424q104 0 191 43t138 118t51 161q0 88 -51 161.5t-138 116.5t-191 43h-424z" glyph-name="P" horiz-adv-x="1216" unicode="P"/><glyph d="M1397.5 393q-56.5 -129 -156.5 -223l162 -170h-57l-136 141q-88 -74 -198.5 -114.5t-231.5 -40.5q-182 0 -336.5 92t-246 248.5t-91.5 341.5q0 184 91.5 340.5t246 248t336.5 91.5t337 -91.5t246 -248t91 -340.5q0 -146 -56.5 -275zM996.5 66.5q103.5 37.5 187.5 105.5 l-441 473l31 29l440 -473q94 92 147.5 211.5t53.5 255.5q0 174 -85 320.5t-231.5 232.5t-318.5 86t-317.5 -86t-230.5 -232.5t-85 -320.5t85 -320.5t230.5 -232.5t317.5 -86q113 0 216.5 37.5z" glyph-name="Q" horiz-adv-x="1572" unicode="Q"/><glyph d="M1038 0l-522 645h107q84 0 129 10.5t100 34.5q78 37 134 113t56 168q0 80 -48 154.5t-137 120.5t-206 46h-418l5 -1292h-43v1331h456q129 0 227.5 -52t151.5 -135t53 -173q0 -106 -60 -188.5t-153 -131.5q-57 -29 -112.5 -37t-151.5 -8l488 -606h-56z" glyph-name="R" horiz-adv-x="1234" unicode="R"/><glyph d="M1042.5 499q53.5 -79 53.5 -163q0 -96 -63.5 -177t-172 -128t-235.5 -47q-123 0 -227.5 43t-169 118.5t-72.5 165.5l41 25q0 -84 58 -155.5t156.5 -112.5t213.5 -41q117 0 215 42t155.5 112.5t57.5 154.5q0 72 -45 137.5t-125 110.5q-47 27 -123 41t-137 20 q-12 2 -106.5 17.5t-154.5 42.5q-96 45 -152 124.5t-56 167.5q0 96 63.5 177t172 129.5t235.5 48.5q121 0 226 -44t170.5 -119t74.5 -165l-43 -23q0 84 -57.5 155t-156 112t-214.5 41q-117 0 -215.5 -41t-155.5 -113t-57 -158q0 -76 49 -145.5t135 -108.5q37 -16 84 -26 t95 -17.5t67 -11.5q96 -14 159.5 -26.5t114.5 -38.5q88 -45 141.5 -124z" glyph-name="S" horiz-adv-x="1261" unicode="S"/><glyph d="M1315 1331v-43h-580v-1288h-43v1288h-575v43h1198z" glyph-name="T" horiz-adv-x="1431" unicode="T"/><glyph d="M889 23.5q-92 -37.5 -193 -37.5q-102 0 -195 37.5t-163 111.5q-70 72 -106.5 165t-36.5 194v837h43v-837q0 -92 33.5 -177.5t97.5 -150.5q133 -137 327 -137q92 0 176 34.5t148 102.5q66 66 100.5 149.5t34.5 178.5v837h39v-837q0 -100 -37 -193.5t-106 -165.5 q-70 -74 -162 -111.5z" glyph-name="U" horiz-adv-x="1388" unicode="U"/><glyph d="M705 80l559 1251h45l-604 -1356l-605 1356h47z" glyph-name="V" horiz-adv-x="1415" unicode="V"/><glyph d="M1317 109l379 1222h45l-422 -1356l-391 1106l-396 -1106l-426 1356h46l383 -1222l393 1097z" glyph-name="W" horiz-adv-x="1847" unicode="W"/><glyph d="M1147 0h-51l-465 631l-463 -631h-49l489 668l-489 663h49l463 -631l467 631h49l-490 -663z" glyph-name="X" horiz-adv-x="1265" unicode="X"/><glyph d="M700 551l549 780h49l-577 -825v-506h-43v506l-576 825h52z" glyph-name="Y" horiz-adv-x="1400" unicode="Y"/><glyph d="M1110 0h-838l672 1288h-766v43h834l-670 -1288h768v-43z" glyph-name="Z" horiz-adv-x="1286" unicode="Z"/><glyph d="M487 0h-321v1331h321v-39h-278v-1249h278v-43z" glyph-name="bracketleft" horiz-adv-x="653" unicode="["/><glyph d="M928 0l-787 1331h52l784 -1331h-49z" glyph-name="backslash" horiz-adv-x="1118" unicode="\"/><glyph d="M487 0h-321v43h278v1249h-278v39h321v-1331z" glyph-name="bracketright" horiz-adv-x="653" unicode="]"/><glyph d="M197 885l-31 30l463 463l467 -463l-31 -30l-436 434z" glyph-name="asciicircum" horiz-adv-x="1261" unicode="^"/><glyph d="M1636 0h-1495v43h1495v-43z" glyph-name="underscore" horiz-adv-x="1779" unicode="_"/><glyph d="M733 1348l594 -1348h-45l-172 391h-774l-182 -391h-48zM354 432h736l-359 815z" glyph-name="a" unicode="a"/><glyph d="M1047.5 553q64.5 -84 64.5 -191q0 -90 -53 -174t-152.5 -136t-230.5 -52h-481l2 1331h368q180 0 291 -98q47 -45 74.5 -104.5t27.5 -122.5q0 -109 -71 -193q-47 -53 -115 -90l-20 -6q86 -14 139 -39q92 -41 156.5 -125zM238 729h323q59 0 101.5 7t82.5 24q23 8 62 34.5 t73.5 81t34.5 130.5q0 74 -40.5 139t-120.5 106t-189 41h-327v-563zM884 89q89 46 137 120t48 153q0 92 -57.5 167t-137.5 110q-113 47 -268 47h-368v-643h438q119 0 208 46z" glyph-name="b" horiz-adv-x="1230" unicode="b"/><glyph d="M1073 52.5q-137 -66.5 -293 -66.5q-182 0 -336.5 92t-246 248.5t-91.5 341.5q0 184 91.5 340.5t246 248t336.5 91.5q143 0 273.5 -57.5t226.5 -164.5l-31 -28q-90 100 -213 155.5t-256 55.5q-172 0 -316.5 -87t-229 -233.5t-84.5 -320.5t84.5 -320.5t229 -232.5 t316.5 -86q143 0 271.5 62.5t220.5 172.5l35 -24q-97 -121 -234 -187.5z" glyph-name="c" horiz-adv-x="1413" unicode="c"/><glyph d="M828.5 52q-119.5 -52 -261.5 -52h-372v1331h372q291 0 473 -201q82 -90 126 -210.5t44 -251.5q0 -133 -44 -253t-126 -212q-92 -99 -211.5 -151zM238 1288v-1245h329q135 0 248 48t193 140q78 86 119.5 199t41.5 238t-42 237.5t-119 196.5q-82 92 -194 139t-247 47h-329z " glyph-name="d" horiz-adv-x="1329" unicode="d"/><glyph d="M1067 0h-872v1331h872v-43h-829v-600h651v-43h-651v-600h829v-45z" glyph-name="e" horiz-adv-x="1257" unicode="e"/><glyph d="M238 0h-43v1331h870v-43h-827v-600h651v-45h-651v-643z" glyph-name="f" horiz-adv-x="1236" unicode="f"/><glyph d="M1251 637v-637h-473q-182 0 -335.5 91t-243.5 246t-90 337t90 337.5t243.5 246t335.5 90.5q141 0 269.5 -56.5t222.5 -161.5l-31 -28q-88 98 -209 151.5t-252 53.5q-170 0 -314.5 -85t-228 -230.5t-83.5 -317.5t83.5 -316.5t228 -229.5t314.5 -85h430v551h-481v43h524z " glyph-name="g" horiz-adv-x="1466" unicode="g"/><glyph d="M1112 0v645h-872v-645h-43v1331h43v-643h872v643h43v-1331h-43z" glyph-name="h" horiz-adv-x="1351" unicode="h"/><glyph d="M262 0h-43v1331h43v-1331z" glyph-name="i" horiz-adv-x="481" unicode="i"/><glyph d="M683 29q-91 -43 -198 -43q-135 0 -245 75q-111 74 -181 209l37 19q63 -125 164.5 -192.5t224.5 -67.5q98 0 181.5 37.5t142.5 111.5q137 166 137 451v702h43v-702q0 -147 -38 -269t-109 -208q-68 -80 -159 -123z" glyph-name="j" horiz-adv-x="1171" unicode="j"/><glyph d="M1128 0h-55l-467 580l-411 -605v1356h43v-1218l827 1218h49l-485 -717z" glyph-name="k" horiz-adv-x="1245" unicode="k"/><glyph d="M1040 0h-845v1331h38v-1288h807v-43z" glyph-name="l" horiz-adv-x="1210" unicode="l"/><glyph d="M1573 0h-43v1202l-643 -1018l-647 1018v-1202h-43v1348l690 -1086l686 1086v-1348z" glyph-name="m" horiz-adv-x="1769" unicode="m"/><glyph d="M1200 -25l-960 1242v-1217h-43v1348l960 -1239v1222h43v-1356z" glyph-name="n" horiz-adv-x="1392" unicode="n"/><glyph d="M1117.5 78q-154.5 -92 -337.5 -92q-182 0 -336.5 92t-246 248.5t-91.5 341.5q0 184 91.5 340.5t246 248t336.5 91.5t337 -91.5t246 -248t91 -340.5t-91 -341t-245.5 -249zM1098.5 1221q-146.5 86 -318.5 86t-316.5 -86t-229 -232.5t-84.5 -320.5t84.5 -320.5t229 -232.5 t316.5 -86t318.5 86t231.5 232.5t85 320.5t-85 320.5t-231.5 232.5z" glyph-name="o" horiz-adv-x="1560" unicode="o"/><glyph d="M238 0h-43v1331h20h447q117 0 214 -49t153 -132t56 -183q0 -98 -56 -181.5t-154.5 -132.5t-212.5 -49h-424v-604zM238 1288v-643h424q104 0 191 43t138 118t51 161q0 88 -51 161.5t-138 116.5t-191 43h-424z" glyph-name="p" horiz-adv-x="1216" unicode="p"/><glyph d="M1397.5 393q-56.5 -129 -156.5 -223l162 -170h-57l-136 141q-88 -74 -198.5 -114.5t-231.5 -40.5q-182 0 -336.5 92t-246 248.5t-91.5 341.5q0 184 91.5 340.5t246 248t336.5 91.5t337 -91.5t246 -248t91 -340.5q0 -146 -56.5 -275zM996.5 66.5q103.5 37.5 187.5 105.5 l-441 473l31 29l440 -473q94 92 147.5 211.5t53.5 255.5q0 174 -85 320.5t-231.5 232.5t-318.5 86t-317.5 -86t-230.5 -232.5t-85 -320.5t85 -320.5t230.5 -232.5t317.5 -86q113 0 216.5 37.5z" glyph-name="q" horiz-adv-x="1572" unicode="q"/><glyph d="M1038 0l-522 645h107q84 0 129 10.5t100 34.5q78 37 134 113t56 168q0 80 -48 154.5t-137 120.5t-206 46h-418l5 -1292h-43v1331h456q129 0 227.5 -52t151.5 -135t53 -173q0 -106 -60 -188.5t-153 -131.5q-57 -29 -112.5 -37t-151.5 -8l488 -606h-56z" glyph-name="r" horiz-adv-x="1234" unicode="r"/><glyph d="M1042.5 499q53.5 -79 53.5 -163q0 -96 -63.5 -177t-172 -128t-235.5 -47q-123 0 -227.5 43t-169 118.5t-72.5 165.5l41 25q0 -84 58 -155.5t156.5 -112.5t213.5 -41q117 0 215 42t155.5 112.5t57.5 154.5q0 72 -45 137.5t-125 110.5q-47 27 -123 41t-137 20 q-12 2 -106.5 17.5t-154.5 42.5q-96 45 -152 124.5t-56 167.5q0 96 63.5 177t172 129.5t235.5 48.5q121 0 226 -44t170.5 -119t74.5 -165l-43 -23q0 84 -57.5 155t-156 112t-214.5 41q-117 0 -215.5 -41t-155.5 -113t-57 -158q0 -76 49 -145.5t135 -108.5q37 -16 84 -26 t95 -17.5t67 -11.5q96 -14 159.5 -26.5t114.5 -38.5q88 -45 141.5 -124z" glyph-name="s" horiz-adv-x="1261" unicode="s"/><glyph d="M1315 1331v-43h-580v-1288h-43v1288h-575v43h1198z" glyph-name="t" horiz-adv-x="1431" unicode="t"/><glyph d="M889 23.5q-92 -37.5 -193 -37.5q-102 0 -195 37.5t-163 111.5q-70 72 -106.5 165t-36.5 194v837h43v-837q0 -92 33.5 -177.5t97.5 -150.5q133 -137 327 -137q92 0 176 34.5t148 102.5q66 66 100.5 149.5t34.5 178.5v837h39v-837q0 -100 -37 -193.5t-106 -165.5 q-70 -74 -162 -111.5z" glyph-name="u" horiz-adv-x="1388" unicode="u"/><glyph d="M705 80l559 1251h45l-604 -1356l-605 1356h47z" glyph-name="v" horiz-adv-x="1415" unicode="v"/><glyph d="M1317 109l379 1222h45l-422 -1356l-391 1106l-396 -1106l-426 1356h46l383 -1222l393 1097z" glyph-name="w" horiz-adv-x="1847" unicode="w"/><glyph d="M1147 0h-51l-465 631l-463 -631h-49l489 668l-489 663h49l463 -631l467 631h49l-490 -663z" glyph-name="x" horiz-adv-x="1265" unicode="x"/><glyph d="M700 551l549 780h49l-577 -825v-506h-43v506l-576 825h52z" glyph-name="y" horiz-adv-x="1400" unicode="y"/><glyph d="M1110 0h-838l672 1288h-766v43h834l-670 -1288h768v-43z" glyph-name="z" horiz-adv-x="1286" unicode="z"/><glyph d="M366.5 143.5q71.5 -77.5 186.5 -110.5v-43q-133 35 -216 124t-83 201v240q0 12 -37 57t-51 62q14 16 51 61t37 56v237q0 111 84 201t215 123v-43q-117 -33 -187.5 -110t-70.5 -171v-237q0 -25 -19.5 -52.5t-50.5 -64.5q4 -4 24.5 -30t33 -49.5t12.5 -39.5v-240 q0 -94 71.5 -171.5z" glyph-name="braceleft" horiz-adv-x="718" unicode="{"/><glyph d="M256 0h-43v1331h43v-1331z" glyph-name="bar" horiz-adv-x="468" unicode="|"/><glyph d="M351.5 143.5q70.5 77.5 70.5 171.5v240q0 16 12 39.5t32.5 49.5t25.5 30q-31 37 -50.5 64.5t-19.5 52.5v237q0 94 -70.5 171t-185.5 110v43q131 -33 214 -123t83 -201v-237q0 -10 37 -55.5t51 -61.5q-14 -16 -51 -61.5t-37 -57.5v-240q0 -111 -83 -200.5t-214 -124.5v43 q115 33 185.5 110.5z" glyph-name="braceright" horiz-adv-x="716" unicode="}"/><glyph d="M225 0v1104h43v-1104h-43zM277.5 1255.5q-13.5 -14.5 -31.5 -14.5t-31.5 13.5t-13.5 31.5q0 20 12 32.5t33 12.5q18 0 31.5 -12t13.5 -33q0 -16 -13.5 -30.5z" glyph-name="exclamdown" horiz-adv-x="491" unicode="¡"/><glyph d="M1078 54.5q-132 -66.5 -281 -68.5v-219h-39v219q-178 6 -327.5 99t-237 246.5t-87.5 336.5q0 180 87.5 332.5t237 245.5t327.5 100v227h39v-227q137 -2 263 -60.5t220 -161.5l-33 -28q-90 98 -212 152.5t-255 54.5q-172 0 -316.5 -85t-229 -231.5t-84.5 -318.5 q0 -174 84.5 -320.5t229 -232.5t316.5 -86q145 0 273.5 61.5t218.5 173.5l35 -24q-97 -119 -229 -185.5z" glyph-name="cent" horiz-adv-x="1413" unicode="¢"/><glyph d="M987 43v-43h-794v47q119 25 202 105q53 49 83 109.5t30 121.5v272h-248v43h248v277q0 70 32.5 137.5t94.5 124.5q61 57 139 89t158 32h12v-43h-12q-72 0 -142.5 -29t-127.5 -80q-51 -49 -81 -110.5t-30 -120.5v-277h244v-43h-244v-272q0 -70 -34 -138.5t-93 -123.5 q-59 -53 -117 -78h680z" glyph-name="sterling" horiz-adv-x="1177" unicode="£"/><glyph d="M819 784q-80 -98 -205 -98q-70 0 -130 36t-95 96.5t-35 131.5q0 72 35 132.5t95.5 96t129.5 35.5q55 0 106.5 -22.5t88.5 -65.5l-33 -26q-31 35 -74 53t-88 18q-90 0 -153.5 -65.5t-63.5 -155.5q0 -92 63.5 -156.5t153.5 -64.5q51 0 95.5 21.5t74.5 60.5zM849.5 542.5 q-108.5 -63.5 -237.5 -63.5q-127 0 -235.5 63.5t-172 173t-63.5 236.5q0 129 63.5 237.5t171 172t236.5 63.5t237.5 -63.5t172 -172t63.5 -237.5t-63.5 -237.5t-172 -172zM828.5 1326q-99.5 58 -216.5 58t-215 -58t-155.5 -157.5t-57.5 -216.5t57.5 -215t156 -156.5 t214.5 -58.5q117 0 216.5 58.5t156.5 157t57 214.5q0 117 -57 216.5t-156.5 157.5z" glyph-name="copyright" horiz-adv-x="1226" unicode="©"/><glyph d="M240 666l571 -418v-51l-645 469l645 462v-51zM547 666l571 -418v-51l-643 469l643 462v-51z" glyph-name="guillemotleft" horiz-adv-x="1284" unicode="«"/><glyph d="M550 1006.5q-71 -70.5 -169 -70.5q-100 0 -170 69.5t-70 170.5q0 100 70 170.5t170 70.5q63 0 118.5 -32.5t88.5 -88t33 -120.5q0 -99 -71 -169.5zM519.5 1315.5q-58.5 58.5 -138.5 58.5q-82 0 -139.5 -58.5t-57.5 -139.5q0 -82 57.5 -139.5t139.5 -57.5q80 0 138.5 57.5 t58.5 139.5q0 81 -58.5 139.5z" glyph-name="degree" horiz-adv-x="761" unicode="°"/><glyph d="M475 1133l643 -467l-643 -467v51l574 416l-574 415v52zM166 1130l645 -464l-645 -467v51l571 416l-571 413v51z" glyph-name="guillemotright" horiz-adv-x="1284" unicode="»"/><glyph d="M598 1020v98h43v-98q0 -76 -19.5 -125t-48 -81t-79.5 -73q-10 -10 -27.5 -22t-28.5 -23q-49 -39 -79.5 -68.5t-57.5 -64.5q-70 -90 -70 -201q0 -90 52.5 -166.5t142.5 -121.5t195 -45q106 0 195 45t141.5 121.5t52.5 166.5h43q0 -76 -33 -145.5t-94 -122.5t-140 -80.5 t-165 -27.5t-165 27.5t-139 80.5q-63 53 -96 122t-33 146q0 123 80 228q27 37 58.5 66.5t85.5 72.5l55 45q47 37 73.5 65.5t42 71.5t15.5 109zM653.5 1268.5q-14.5 -13.5 -32.5 -13.5t-32 13.5t-14 31.5t13.5 32t32.5 14q18 0 32.5 -13.5t14.5 -32.5q0 -18 -14.5 -31.5z" glyph-name="questiondown" horiz-adv-x="1193" unicode="¿"/><glyph d="M709 1522l-195 190h84l145 -190h-34zM733 1348l594 -1348h-45l-172 391h-774l-182 -391h-48zM354 432h736l-359 815z" glyph-name="Agrave" unicode="À"/><glyph d="M696 1522l144 192h88l-195 -192h-37zM733 1348l594 -1348h-45l-172 391h-774l-182 -391h-48zM354 432h736l-359 815z" glyph-name="Aacute" unicode="Á"/><glyph d="M905 1522h-33l-151 147l-154 -147h-32l143 190h86zM733 1348l594 -1348h-45l-172 391h-774l-182 -391h-48zM354 432h736l-359 815z" glyph-name="Acircumflex" unicode="Â"/><glyph d="M475 1550q-20 -39 -22 -41l-37 17q0 4 15 29q15 26 43 53t67 39q23 6 45 6q63 0 137 -49q59 -41 111 -41q12 0 32 4q57 16 79 55t24 41l37 -16q0 -6 -16 -32q-15 -26 -44 -51q-29 -26 -67 -38q-20 -6 -48 -6q-66 0 -135 49q-55 41 -110 41q-23 0 -33 -4q-58 -17 -78 -56z M733 1348l594 -1348h-45l-172 391h-774l-182 -391h-48zM354 432h736l-359 815z" glyph-name="Atilde" unicode="Ã"/><glyph d="M495 1598q13 13 31 14q18 0 32 -14q13 -13 13 -31t-13 -32q-13 -13 -32 -13q-18 0 -31 13t-14 32q1 18 14 31zM866 1598q14 13 31 14q20 0 33 -14q12 -13 12 -31t-13 -32q-13 -13 -32 -13q-16 0 -31 13q-14 13 -14 32q0 18 14 31zM733 1348l594 -1348h-45l-172 391h-774 l-182 -391h-48zM354 432h736l-359 815z" glyph-name="Adieresis" unicode="Ä"/><glyph d="M838 1567q-45 -45 -111 -45t-111 45t-45 110q0 63 46 110q46 46 110 46q63 0 110 -46q46 -46 46 -110q0 -65 -45 -110zM808 1756q-34 34 -81 34t-80 -33t-33 -80t33 -81t80 -33q47 0 81 33q34 34 34 81q0 45 -34 79zM733 1348l594 -1348h-45l-172 391h-774l-182 -391h-48 zM354 432h736l-359 815z" glyph-name="Aring" unicode="Å"/><glyph d="M1817 1331v-43h-828v-600h653v-43h-653v-602h828v-43h-871v461h-579l-213 -461h-48l617 1331h1094zM946 504v784h-194l-365 -784h559z" glyph-name="AE" horiz-adv-x="2009" unicode="Æ"/><glyph d="M1073 52.5q-137 -66.5 -293 -66.5q-182 0 -336.5 92t-246 248.5t-91.5 341.5q0 184 91.5 340.5t246 248t336.5 91.5q143 0 273.5 -57.5t226.5 -164.5l-31 -28q-90 100 -213 155.5t-256 55.5q-172 0 -316.5 -87t-229 -233.5t-84.5 -320.5t84.5 -320.5t229 -232.5 t316.5 -86q143 0 271.5 62.5t220.5 172.5l35 -24q-97 -121 -234 -187.5zM883 -227q-41 -33 -107 -33q-63 0 -108 33q-47 31 -47 84h41q0 -29 34.5 -52.5t79.5 -23.5t79 23.5t34 52.5q0 31 -34 53t-79 22h-22v88h43v-47q45 -2 86 -30q49 -35 49 -86q0 -53 -49 -84z" glyph-name="Ccedilla" horiz-adv-x="1413" unicode="Ç"/><glyph d="M625 1522l-195 190h84l145 -190h-34zM1067 0h-872v1331h872v-43h-829v-600h651v-43h-651v-600h829v-45z" glyph-name="Egrave" horiz-adv-x="1257" unicode="È"/><glyph d="M621 1522l143 192h88l-195 -192h-36zM1067 0h-872v1331h872v-43h-829v-600h651v-43h-651v-600h829v-45z" glyph-name="Eacute" horiz-adv-x="1257" unicode="É"/><glyph d="M842 1522h-33l-152 147l-153 -147h-33l143 190h86zM1067 0h-872v1331h872v-43h-829v-600h651v-43h-651v-600h829v-45z" glyph-name="Ecircumflex" horiz-adv-x="1257" unicode="Ê"/><glyph d="M429 1598q13 13 32 14q18 0 32 -14q13 -13 13 -31t-13 -32q-13 -13 -32 -13q-18 0 -32 13q-13 13 -13 32q0 18 13 31zM801 1598q14 13 30 14q20 0 33 -14q12 -13 13 -31q0 -18 -14 -32q-13 -13 -32 -13q-16 0 -30 13t-15 32q1 18 15 31zM1067 0h-872v1331h872v-43h-829 v-600h651v-43h-651v-600h829v-45z" glyph-name="Edieresis" horiz-adv-x="1257" unicode="Ë"/><glyph d="M281 0h-43v1331h43v-1331zM242 1497l-195 195h86l141 -195h-32z" glyph-name="Igrave" horiz-adv-x="499" unicode="Ì"/><glyph d="M262 0h-43v1331h43v-1331zM223 1497l144 193h86l-197 -193h-33z" glyph-name="Iacute" horiz-adv-x="499" unicode="Í"/><glyph d="M260 0h-43v1331h43v-1331zM428 1497h-35l-151 152l-154 -152h-35l146 193h84z" glyph-name="Icircumflex" horiz-adv-x="481" unicode="Î"/><glyph d="M258 0h-43v1331h43v-1331zM21.5 1575q13.5 12 31.5 12t31.5 -12t13.5 -33q0 -16 -13 -30.5t-32 -14.5q-18 0 -31.5 14.5t-13.5 30.5q0 21 13.5 33zM392.5 1575q13.5 12 31.5 12t32.5 -13t14.5 -32q0 -16 -14.5 -30.5t-32.5 -14.5t-31.5 14.5t-13.5 30.5q0 21 13.5 33z " glyph-name="Idieresis" horiz-adv-x="479" unicode="Ï"/><glyph d="M1395 920.5q45 -119.5 45 -252.5t-44 -253t-128 -212q-90 -98 -210 -150.5t-261 -52.5h-373v645h-229v43h229v643h373q143 0 263 -50t208 -151q82 -90 127 -209.5zM1357 430q42 113 42 238t-42 237.5t-120 196.5q-82 92 -194.5 139t-245.5 47h-330v-600h565v-43h-565 v-602h330q135 0 246.5 47t193.5 141q78 86 120 199z" glyph-name="Eth" horiz-adv-x="1558" unicode="Ð"/><glyph d="M467 1550q-20 -39 -23 -41l-36 17q0 4 15 29q15 26 43 53t66 39q23 6 46 6q63 0 137 -49q59 -41 110 -41q12 0 33 4q57 16 79 55t24 41l36 -16q0 -6 -15 -32t-44 -51q-29 -26 -68 -38q-20 -6 -47 -6q-66 0 -135 49q-55 41 -110 41q-23 0 -33 -4q-58 -17 -78 -56z M1200 -25l-960 1242v-1217h-43v1348l960 -1239v1222h43v-1356z" glyph-name="Ntilde" horiz-adv-x="1392" unicode="Ñ"/><glyph d="M737 1522l-194 190h84l145 -190h-35zM1117 78q-155 -92 -337 -92t-337 92t-245 249q-91 157 -92 341q0 184 92 341q91 157 245 247q155 91 337 92q182 0 337 -92q155 -91 246 -247q91 -157 91 -341t-91 -341t-246 -249zM1099 1221q-146 86 -319 86q-172 0 -316 -86 t-230 -233q-85 -146 -84 -320q0 -174 84 -321q85 -146 230 -232q144 -86 316 -86t319 86q146 86 231 232t85 321q0 174 -85 320q-85 147 -231 233z" glyph-name="Ograve" horiz-adv-x="1560" unicode="Ò"/><glyph d="M737 1522l144 192h88l-195 -192h-37zM1117 78q-155 -92 -337 -92t-337 92t-245 249q-91 157 -92 341q0 184 92 341q91 157 245 247q155 91 337 92q182 0 337 -92q155 -91 246 -247q91 -157 91 -341t-91 -341t-246 -249zM1099 1221q-146 86 -319 86q-172 0 -316 -86 t-230 -233q-85 -146 -84 -320q0 -174 84 -321q85 -146 230 -232q144 -86 316 -86t319 86q146 86 231 232t85 321q0 174 -85 320q-85 147 -231 233z" glyph-name="Oacute" horiz-adv-x="1560" unicode="Ó"/><glyph d="M958 1522h-32l-152 147l-153 -147h-33l143 190h86zM1117 78q-155 -92 -337 -92t-337 92t-245 249q-91 157 -92 341q0 184 92 341q91 157 245 247q155 91 337 92q182 0 337 -92q155 -91 246 -247q91 -157 91 -341t-91 -341t-246 -249zM1099 1221q-146 86 -319 86 q-172 0 -316 -86t-230 -233q-85 -146 -84 -320q0 -174 84 -321q85 -146 230 -232q144 -86 316 -86t319 86q146 86 231 232t85 321q0 174 -85 320q-85 147 -231 233z" glyph-name="Ocircumflex" horiz-adv-x="1560" unicode="Ô"/><glyph d="M508 1550q-20 -39 -23 -41l-36 17q0 4 15 29q15 26 43 53t66 39q23 6 45 6q63 0 138 -49q59 -41 110 -41q12 0 33 4q57 16 79 55t23 41l37 -16q0 -6 -15 -32t-44 -51q-29 -26 -68 -38q-20 -6 -47 -6q-66 0 -135 49q-55 41 -111 41q-23 0 -32 -4q-58 -17 -78 -56zM1117 78 q-155 -92 -337 -92t-337 92t-245 249q-91 157 -92 341q0 184 92 341q91 157 245 247q155 91 337 92q182 0 337 -92q155 -91 246 -247q91 -157 91 -341t-91 -341t-246 -249zM1099 1221q-146 86 -319 86q-172 0 -316 -86t-230 -233q-85 -146 -84 -320q0 -174 84 -321 q85 -146 230 -232q144 -86 316 -86t319 86q146 86 231 232t85 321q0 174 -85 320q-85 147 -231 233z" glyph-name="Otilde" horiz-adv-x="1560" unicode="Õ"/><glyph d="M536 1598q13 13 31 14q18 0 32 -14q13 -13 13 -31t-13 -32q-13 -13 -32 -13q-18 0 -31 13t-14 32q1 18 14 31zM907 1598q14 13 31 14q20 0 33 -14q12 -13 12 -31t-13 -32q-13 -13 -32 -13q-16 0 -31 13q-14 13 -14 32q0 18 14 31zM1117 78q-155 -92 -337 -92t-337 92 t-245 249q-91 157 -92 341q0 184 92 341q91 157 245 247q155 91 337 92q182 0 337 -92q155 -91 246 -247q91 -157 91 -341t-91 -341t-246 -249zM1099 1221q-146 86 -319 86q-172 0 -316 -86t-230 -233q-85 -146 -84 -320q0 -174 84 -321q85 -146 230 -232q144 -86 316 -86 t319 86q146 86 231 232t85 321q0 174 -85 320q-85 147 -231 233z" glyph-name="Odieresis" horiz-adv-x="1560" unicode="Ö"/><glyph d="M764 946l-281 -280l281 -283l-31 -29l-280 281l-283 -283l-29 31l283 283l-283 280l29 29l283 -283l280 283z" glyph-name="multiply" horiz-adv-x="905" unicode="×"/><glyph d="M1372 1002.5q84 -152.5 84 -328.5q0 -184 -91 -340t-246.5 -248t-338.5 -92q-170 0 -323 82l-45 -76h-50l60 100q-145 90 -230.5 243t-85.5 331q0 184 91.5 340.5t246 249t336.5 92.5q174 0 330 -88l37 65h49l-51 -86q143 -92 227 -244.5zM228.5 363.5 q78.5 -142.5 213.5 -228.5l645 1098q-150 80 -307 80q-172 0 -316.5 -86t-229 -232.5t-84.5 -320.5q0 -168 78.5 -310.5zM1098.5 121q146.5 86 231.5 232.5t85 320.5q0 166 -79 307t-212 229l-647 -1097q143 -78 303 -78q172 0 318.5 86z" glyph-name="Oslash" horiz-adv-x="1562" unicode="Ø"/><glyph d="M666 1522l-195 190h84l145 -190h-34zM889 24q-92 -38 -193 -38q-102 0 -195 38t-163 111q-70 72 -107 165t-36 194v837h43v-837q0 -92 33 -178q34 -85 98 -150q133 -137 327 -137q92 0 176 34q84 35 148 103q66 66 100 149q35 84 35 179v837h39v-837q0 -100 -37 -194 q-37 -93 -106 -165q-70 -73 -162 -111z" glyph-name="Ugrave" horiz-adv-x="1388" unicode="Ù"/><glyph d="M659 1522l144 192h88l-195 -192h-37zM889 24q-92 -38 -193 -38q-102 0 -195 38t-163 111q-70 72 -107 165t-36 194v837h43v-837q0 -92 33 -178q34 -85 98 -150q133 -137 327 -137q92 0 176 34q84 35 148 103q66 66 100 149q35 84 35 179v837h39v-837q0 -100 -37 -194 q-37 -93 -106 -165q-70 -73 -162 -111z" glyph-name="Uacute" horiz-adv-x="1388" unicode="Ú"/><glyph d="M901 1522h-33l-151 147l-154 -147h-33l144 190h86zM889 24q-92 -38 -193 -38q-102 0 -195 38t-163 111q-70 72 -107 165t-36 194v837h43v-837q0 -92 33 -178q34 -85 98 -150q133 -137 327 -137q92 0 176 34q84 35 148 103q66 66 100 149q35 84 35 179v837h39v-837 q0 -100 -37 -194q-37 -93 -106 -165q-70 -73 -162 -111z" glyph-name="Ucircumflex" horiz-adv-x="1388" unicode="Û"/><glyph d="M466 1598q13 13 32 14q18 0 31 -14q13 -13 14 -31q0 -18 -14 -32q-13 -13 -31 -13t-32 13q-13 13 -13 32q0 18 13 31zM838 1598q14 13 30 14q20 0 33 -14q12 -13 12 -31t-13 -32q-13 -13 -32 -13q-16 0 -30 13t-15 32q1 18 15 31zM889 24q-92 -38 -193 -38 q-102 0 -195 38t-163 111q-70 72 -107 165t-36 194v837h43v-837q0 -92 33 -178q34 -85 98 -150q133 -137 327 -137q92 0 176 34q84 35 148 103q66 66 100 149q35 84 35 179v837h39v-837q0 -100 -37 -194q-37 -93 -106 -165q-70 -73 -162 -111z" glyph-name="Udieresis" horiz-adv-x="1388" unicode="Ü"/><glyph d="M668 1522l143 192h88l-194 -192h-37zM700 551l549 780h49l-577 -825v-506h-43v506l-576 825h52z" glyph-name="Yacute" horiz-adv-x="1400" unicode="Ý"/><glyph d="M1044.5 555q65.5 -84 65.5 -190q0 -92 -53 -176.5t-151.5 -136.5t-229.5 -52h-230v43h230q117 0 206 46t137 120t48 156q0 94 -57.5 167.5t-137.5 108.5q-113 47 -266 47h-160v41h99q82 0 152.5 38t112.5 102.5t42 140.5t-42 139t-112.5 101t-152.5 38q-84 0 -155 -38 t-111.5 -101.5t-40.5 -138.5v-1010h-43v1010q0 88 47 161.5t127 116.5t176 43q94 0 174 -43t128 -116.5t48 -161.5q0 -90 -52 -167t-138 -120q111 -8 184 -45q90 -39 155.5 -123z" glyph-name="germandbls" horiz-adv-x="1226" unicode="ß"/><glyph d="M709 1522l-195 190h84l145 -190h-34zM733 1348l594 -1348h-45l-172 391h-774l-182 -391h-48zM354 432h736l-359 815z" glyph-name="agrave" unicode="à"/><glyph d="M696 1522l144 192h88l-195 -192h-37zM733 1348l594 -1348h-45l-172 391h-774l-182 -391h-48zM354 432h736l-359 815z" glyph-name="aacute" unicode="á"/><glyph d="M905 1522h-33l-151 147l-154 -147h-32l143 190h86zM733 1348l594 -1348h-45l-172 391h-774l-182 -391h-48zM354 432h736l-359 815z" glyph-name="acircumflex" unicode="â"/><glyph d="M475 1550q-20 -39 -22 -41l-37 17q0 4 15 29q15 26 43 53t67 39q23 6 45 6q63 0 137 -49q59 -41 111 -41q12 0 32 4q57 16 79 55t24 41l37 -16q0 -6 -16 -32q-15 -26 -44 -51q-29 -26 -67 -38q-20 -6 -48 -6q-66 0 -135 49q-55 41 -110 41q-23 0 -33 -4q-58 -17 -78 -56z M733 1348l594 -1348h-45l-172 391h-774l-182 -391h-48zM354 432h736l-359 815z" glyph-name="atilde" unicode="ã"/><glyph d="M495 1598q13 13 31 14q18 0 32 -14q13 -13 13 -31t-13 -32q-13 -13 -32 -13q-18 0 -31 13t-14 32q1 18 14 31zM866 1598q14 13 31 14q20 0 33 -14q12 -13 12 -31t-13 -32q-13 -13 -32 -13q-16 0 -31 13q-14 13 -14 32q0 18 14 31zM733 1348l594 -1348h-45l-172 391h-774 l-182 -391h-48zM354 432h736l-359 815z" glyph-name="adieresis" unicode="ä"/><glyph d="M838 1567q-45 -45 -111 -45t-111 45t-45 110q0 63 46 110q46 46 110 46q63 0 110 -46q46 -46 46 -110q0 -65 -45 -110zM808 1756q-34 34 -81 34t-80 -33t-33 -80t33 -81t80 -33q47 0 81 33q34 34 34 81q0 45 -34 79zM733 1348l594 -1348h-45l-172 391h-774l-182 -391h-48 zM354 432h736l-359 815z" glyph-name="aring" unicode="å"/><glyph d="M1817 1331v-43h-828v-600h653v-43h-653v-602h828v-43h-871v461h-579l-213 -461h-48l617 1331h1094zM946 504v784h-194l-365 -784h559z" glyph-name="ae" horiz-adv-x="2009" unicode="æ"/><glyph d="M1073 52.5q-137 -66.5 -293 -66.5q-182 0 -336.5 92t-246 248.5t-91.5 341.5q0 184 91.5 340.5t246 248t336.5 91.5q143 0 273.5 -57.5t226.5 -164.5l-31 -28q-90 100 -213 155.5t-256 55.5q-172 0 -316.5 -87t-229 -233.5t-84.5 -320.5t84.5 -320.5t229 -232.5 t316.5 -86q143 0 271.5 62.5t220.5 172.5l35 -24q-97 -121 -234 -187.5zM883 -227q-41 -33 -107 -33q-63 0 -108 33q-47 31 -47 84h41q0 -29 34.5 -52.5t79.5 -23.5t79 23.5t34 52.5q0 31 -34 53t-79 22h-22v88h43v-47q45 -2 86 -30q49 -35 49 -86q0 -53 -49 -84z" glyph-name="ccedilla" horiz-adv-x="1413" unicode="ç"/><glyph d="M625 1522l-195 190h84l145 -190h-34zM1067 0h-872v1331h872v-43h-829v-600h651v-43h-651v-600h829v-45z" glyph-name="egrave" horiz-adv-x="1257" unicode="è"/><glyph d="M621 1522l143 192h88l-195 -192h-36zM1067 0h-872v1331h872v-43h-829v-600h651v-43h-651v-600h829v-45z" glyph-name="eacute" horiz-adv-x="1257" unicode="é"/><glyph d="M842 1522h-33l-152 147l-153 -147h-33l143 190h86zM1067 0h-872v1331h872v-43h-829v-600h651v-43h-651v-600h829v-45z" glyph-name="ecircumflex" horiz-adv-x="1257" unicode="ê"/><glyph d="M429 1598q13 13 32 14q18 0 32 -14q13 -13 13 -31t-13 -32q-13 -13 -32 -13q-18 0 -32 13q-13 13 -13 32q0 18 13 31zM801 1598q14 13 30 14q20 0 33 -14q12 -13 13 -31q0 -18 -14 -32q-13 -13 -32 -13q-16 0 -30 13t-15 32q1 18 15 31zM1067 0h-872v1331h872v-43h-829 v-600h651v-43h-651v-600h829v-45z" glyph-name="edieresis" horiz-adv-x="1257" unicode="ë"/><glyph d="M281 0h-43v1331h43v-1331zM242 1497l-195 195h86l141 -195h-32z" glyph-name="igrave" horiz-adv-x="499" unicode="ì"/><glyph d="M262 0h-43v1331h43v-1331zM223 1497l144 193h86l-197 -193h-33z" glyph-name="iacute" horiz-adv-x="499" unicode="í"/><glyph d="M260 0h-43v1331h43v-1331zM428 1497h-35l-151 152l-154 -152h-35l146 193h84z" glyph-name="icircumflex" horiz-adv-x="481" unicode="î"/><glyph d="M258 0h-43v1331h43v-1331zM21.5 1575q13.5 12 31.5 12t31.5 -12t13.5 -33q0 -16 -13 -30.5t-32 -14.5q-18 0 -31.5 14.5t-13.5 30.5q0 21 13.5 33zM392.5 1575q13.5 12 31.5 12t32.5 -13t14.5 -32q0 -16 -14.5 -30.5t-32.5 -14.5t-31.5 14.5t-13.5 30.5q0 21 13.5 33z " glyph-name="idieresis" horiz-adv-x="479" unicode="ï"/><glyph d="M467 1550q-20 -39 -23 -41l-36 17q0 4 15 29q15 26 43 53t66 39q23 6 46 6q63 0 137 -49q59 -41 110 -41q12 0 33 4q57 16 79 55t24 41l36 -16q0 -6 -15 -32t-44 -51q-29 -26 -68 -38q-20 -6 -47 -6q-66 0 -135 49q-55 41 -110 41q-23 0 -33 -4q-58 -17 -78 -56z M1200 -25l-960 1242v-1217h-43v1348l960 -1239v1222h43v-1356z" glyph-name="ntilde" horiz-adv-x="1392" unicode="ñ"/><glyph d="M737 1522l-194 190h84l145 -190h-35zM1117 78q-155 -92 -337 -92t-337 92t-245 249q-91 157 -92 341q0 184 92 341q91 157 245 247q155 91 337 92q182 0 337 -92q155 -91 246 -247q91 -157 91 -341t-91 -341t-246 -249zM1099 1221q-146 86 -319 86q-172 0 -316 -86 t-230 -233q-85 -146 -84 -320q0 -174 84 -321q85 -146 230 -232q144 -86 316 -86t319 86q146 86 231 232t85 321q0 174 -85 320q-85 147 -231 233z" glyph-name="ograve" horiz-adv-x="1560" unicode="ò"/><glyph d="M737 1522l144 192h88l-195 -192h-37zM1117 78q-155 -92 -337 -92t-337 92t-245 249q-91 157 -92 341q0 184 92 341q91 157 245 247q155 91 337 92q182 0 337 -92q155 -91 246 -247q91 -157 91 -341t-91 -341t-246 -249zM1099 1221q-146 86 -319 86q-172 0 -316 -86 t-230 -233q-85 -146 -84 -320q0 -174 84 -321q85 -146 230 -232q144 -86 316 -86t319 86q146 86 231 232t85 321q0 174 -85 320q-85 147 -231 233z" glyph-name="oacute" horiz-adv-x="1560" unicode="ó"/><glyph d="M958 1522h-32l-152 147l-153 -147h-33l143 190h86zM1117 78q-155 -92 -337 -92t-337 92t-245 249q-91 157 -92 341q0 184 92 341q91 157 245 247q155 91 337 92q182 0 337 -92q155 -91 246 -247q91 -157 91 -341t-91 -341t-246 -249zM1099 1221q-146 86 -319 86 q-172 0 -316 -86t-230 -233q-85 -146 -84 -320q0 -174 84 -321q85 -146 230 -232q144 -86 316 -86t319 86q146 86 231 232t85 321q0 174 -85 320q-85 147 -231 233z" glyph-name="ocircumflex" horiz-adv-x="1560" unicode="ô"/><glyph d="M508 1550q-20 -39 -23 -41l-36 17q0 4 15 29q15 26 43 53t66 39q23 6 45 6q63 0 138 -49q59 -41 110 -41q12 0 33 4q57 16 79 55t23 41l37 -16q0 -6 -15 -32t-44 -51q-29 -26 -68 -38q-20 -6 -47 -6q-66 0 -135 49q-55 41 -111 41q-23 0 -32 -4q-58 -17 -78 -56zM1117 78 q-155 -92 -337 -92t-337 92t-245 249q-91 157 -92 341q0 184 92 341q91 157 245 247q155 91 337 92q182 0 337 -92q155 -91 246 -247q91 -157 91 -341t-91 -341t-246 -249zM1099 1221q-146 86 -319 86q-172 0 -316 -86t-230 -233q-85 -146 -84 -320q0 -174 84 -321 q85 -146 230 -232q144 -86 316 -86t319 86q146 86 231 232t85 321q0 174 -85 320q-85 147 -231 233z" glyph-name="otilde" horiz-adv-x="1560" unicode="õ"/><glyph d="M536 1598q13 13 31 14q18 0 32 -14q13 -13 13 -31t-13 -32q-13 -13 -32 -13q-18 0 -31 13t-14 32q1 18 14 31zM907 1598q14 13 31 14q20 0 33 -14q12 -13 12 -31t-13 -32q-13 -13 -32 -13q-16 0 -31 13q-14 13 -14 32q0 18 14 31zM1117 78q-155 -92 -337 -92t-337 92 t-245 249q-91 157 -92 341q0 184 92 341q91 157 245 247q155 91 337 92q182 0 337 -92q155 -91 246 -247q91 -157 91 -341t-91 -341t-246 -249zM1099 1221q-146 86 -319 86q-172 0 -316 -86t-230 -233q-85 -146 -84 -320q0 -174 84 -321q85 -146 230 -232q144 -86 316 -86 t319 86q146 86 231 232t85 321q0 174 -85 320q-85 147 -231 233z" glyph-name="odieresis" horiz-adv-x="1560" unicode="ö"/><glyph d="M1372 1002.5q84 -152.5 84 -328.5q0 -184 -91 -340t-246.5 -248t-338.5 -92q-170 0 -323 82l-45 -76h-50l60 100q-145 90 -230.5 243t-85.5 331q0 184 91.5 340.5t246 249t336.5 92.5q174 0 330 -88l37 65h49l-51 -86q143 -92 227 -244.5zM228.5 363.5 q78.5 -142.5 213.5 -228.5l645 1098q-150 80 -307 80q-172 0 -316.5 -86t-229 -232.5t-84.5 -320.5q0 -168 78.5 -310.5zM1098.5 121q146.5 86 231.5 232.5t85 320.5q0 166 -79 307t-212 229l-647 -1097q143 -78 303 -78q172 0 318.5 86z" glyph-name="oslash" horiz-adv-x="1562" unicode="ø"/><glyph d="M666 1522l-195 190h84l145 -190h-34zM889 24q-92 -38 -193 -38q-102 0 -195 38t-163 111q-70 72 -107 165t-36 194v837h43v-837q0 -92 33 -178q34 -85 98 -150q133 -137 327 -137q92 0 176 34q84 35 148 103q66 66 100 149q35 84 35 179v837h39v-837q0 -100 -37 -194 q-37 -93 -106 -165q-70 -73 -162 -111z" glyph-name="ugrave" horiz-adv-x="1388" unicode="ù"/><glyph d="M659 1522l144 192h88l-195 -192h-37zM889 24q-92 -38 -193 -38q-102 0 -195 38t-163 111q-70 72 -107 165t-36 194v837h43v-837q0 -92 33 -178q34 -85 98 -150q133 -137 327 -137q92 0 176 34q84 35 148 103q66 66 100 149q35 84 35 179v837h39v-837q0 -100 -37 -194 q-37 -93 -106 -165q-70 -73 -162 -111z" glyph-name="uacute" horiz-adv-x="1388" unicode="ú"/><glyph d="M901 1522h-33l-151 147l-154 -147h-33l144 190h86zM889 24q-92 -38 -193 -38q-102 0 -195 38t-163 111q-70 72 -107 165t-36 194v837h43v-837q0 -92 33 -178q34 -85 98 -150q133 -137 327 -137q92 0 176 34q84 35 148 103q66 66 100 149q35 84 35 179v837h39v-837 q0 -100 -37 -194q-37 -93 -106 -165q-70 -73 -162 -111z" glyph-name="ucircumflex" horiz-adv-x="1388" unicode="û"/><glyph d="M466 1598q13 13 32 14q18 0 31 -14q13 -13 14 -31q0 -18 -14 -32q-13 -13 -31 -13t-32 13q-13 13 -13 32q0 18 13 31zM838 1598q14 13 30 14q20 0 33 -14q12 -13 12 -31t-13 -32q-13 -13 -32 -13q-16 0 -30 13t-15 32q1 18 15 31zM889 24q-92 -38 -193 -38 q-102 0 -195 38t-163 111q-70 72 -107 165t-36 194v837h43v-837q0 -92 33 -178q34 -85 98 -150q133 -137 327 -137q92 0 176 34q84 35 148 103q66 66 100 149q35 84 35 179v837h39v-837q0 -100 -37 -194q-37 -93 -106 -165q-70 -73 -162 -111z" glyph-name="udieresis" horiz-adv-x="1388" unicode="ü"/><glyph d="M668 1522l143 192h88l-194 -192h-37zM700 551l549 780h49l-577 -825v-506h-43v506l-576 825h52z" glyph-name="yacute" horiz-adv-x="1400" unicode="ý"/><glyph d="M468 1598q13 13 32 14q18 0 31 -14q13 -13 14 -31q0 -18 -14 -32q-13 -13 -31 -13t-32 13q-13 13 -13 32q0 18 13 31zM840 1598q14 13 30 14q20 0 33 -14q12 -13 12 -31t-13 -32q-13 -13 -32 -13q-16 0 -30 13t-15 32q1 18 15 31zM700 551l549 780h49l-577 -825v-506h-43 v506l-576 825h52z" glyph-name="ydieresis" horiz-adv-x="1400" unicode="ÿ"/><glyph d="M1333 1288v-602h654v-43h-654v-600h830v-43h-871v264q-92 -123 -230 -193.5t-296 -70.5q-180 0 -330.5 90t-240 242.5t-89.5 335.5q0 180 89.5 332.5t240 241.5t330.5 89q158 0 296 -70.5t230 -193.5v264h871v-43h-830zM1069 123q139 80 223 215v657q-84 135 -223 216 t-303 81q-168 0 -309.5 -85t-225.5 -228t-84 -311q0 -170 84 -313.5t225.5 -227.5t309.5 -84q164 0 303 80z" glyph-name="OE" horiz-adv-x="2353" unicode="Œ"/><glyph d="M1333 1288v-602h654v-43h-654v-600h830v-43h-871v264q-92 -123 -230 -193.5t-296 -70.5q-180 0 -330.5 90t-240 242.5t-89.5 335.5q0 180 89.5 332.5t240 241.5t330.5 89q158 0 296 -70.5t230 -193.5v264h871v-43h-830zM1069 123q139 80 223 215v657q-84 135 -223 216 t-303 81q-168 0 -309.5 -85t-225.5 -228t-84 -311q0 -170 84 -313.5t225.5 -227.5t309.5 -84q164 0 303 80z" glyph-name="oe" horiz-adv-x="2353" unicode="œ"/><glyph d="M1075 1522h-33l-151 147l-154 -147h-32l143 190h86zM1317 109l379 1222h45l-422 -1356l-391 1106l-396 -1106l-426 1356h46l383 -1222l393 1097z" glyph-name="Wcircumflex" horiz-adv-x="1847" unicode="Ŵ"/><glyph d="M1075 1522h-33l-151 147l-154 -147h-32l143 190h86zM1317 109l379 1222h45l-422 -1356l-391 1106l-396 -1106l-426 1356h46l383 -1222l393 1097z" glyph-name="wcircumflex" horiz-adv-x="1847" unicode="ŵ"/><glyph d="M879 1522h-33l-152 147l-153 -147h-33l143 190h86zM700 551l549 780h49l-577 -825v-506h-43v506l-576 825h52z" glyph-name="Ycircumflex" horiz-adv-x="1400" unicode="Ŷ"/><glyph d="M879 1522h-33l-152 147l-153 -147h-33l143 190h86zM700 551l549 780h49l-577 -825v-506h-43v506l-576 825h52z" glyph-name="ycircumflex" horiz-adv-x="1400" unicode="ŷ"/><glyph d="M468 1598q13 13 32 14q18 0 31 -14q13 -13 14 -31q0 -18 -14 -32q-13 -13 -31 -13t-32 13q-13 13 -13 32q0 18 13 31zM840 1598q14 13 30 14q20 0 33 -14q12 -13 12 -31t-13 -32q-13 -13 -32 -13q-16 0 -30 13t-15 32q1 18 15 31zM700 551l549 780h49l-577 -825v-506h-43 v506l-576 825h52z" glyph-name="Ydieresis" horiz-adv-x="1400" unicode="Ÿ"/><glyph d="M-772 1522l-195 190h84l146 -190h-35z" glyph-name="gravecomb" horiz-adv-x="0" unicode="̀"/><glyph d="M-829 1522l143 192h88l-195 -192h-36z" glyph-name="acutecomb" horiz-adv-x="0" unicode="́"/><glyph d="M-578 1522h-32l-152 147l-153 -147h-33l143 190h86z" glyph-name="uni0302" horiz-adv-x="0" unicode="̂"/><glyph d="M-952.5 1550q-20.5 -39 -22.5 -41l-37 17q0 4 15.5 29.5t43 52t66.5 39.5q23 6 45 6q63 0 137 -49q59 -41 111 -41q12 0 33 4q57 16 78.5 55t23.5 41l37 -16q0 -6 -15.5 -32t-44 -51.5t-67.5 -37.5q-20 -6 -47 -6q-66 0 -135 49q-55 41 -111 41q-23 0 -32 -4 q-58 -17 -78.5 -56z" glyph-name="tildecomb" horiz-adv-x="0" unicode="̃"/><glyph d="M-739.5 1598.5q12.5 13.5 32.5 13.5q16 0 30.5 -13.5t14.5 -31.5t-14 -31.5t-31 -13.5q-20 0 -32.5 13t-12.5 32q0 18 12.5 31.5z" glyph-name="uni0307" horiz-adv-x="0" unicode="̇"/><glyph d="M-1027 1598.5q13 13.5 32 13.5q18 0 31.5 -13.5t13.5 -31.5t-13.5 -31.5t-31.5 -13.5t-31.5 13t-13.5 32q0 18 13 31.5zM-655.5 1598.5q14.5 13.5 30.5 13.5q20 0 32.5 -13.5t12.5 -31.5t-13 -31.5t-32 -13.5q-16 0 -30.5 13t-14.5 32q0 18 14.5 31.5z" glyph-name="uni0308" horiz-adv-x="0" unicode="̈"/><glyph d="M-649 1567q-45 -45 -111 -45t-110.5 45t-44.5 110q0 63 46 109.5t109 46.5t109.5 -46t46.5 -110q0 -65 -45 -110zM-679 1756q-34 34 -81 34t-79.5 -33t-32.5 -80t32.5 -80.5t79.5 -33.5t81 33.5t34 80.5q0 45 -34 79z" glyph-name="uni030A" horiz-adv-x="0" unicode="̊"/><glyph d="M-598 -248q-41 -33 -107 -33q-63 0 -108 33q-47 31 -47 84h41q0 -29 34.5 -52.5t79.5 -23.5t79 23.5t34 52.5q0 31 -33.5 53.5t-79.5 22.5h-22v88h43v-47q45 -2 86 -31q49 -35 49 -86q0 -53 -49 -84z" glyph-name="uni0327" horiz-adv-x="0" unicode="̧"/><glyph d="M-532 647h-838v41h838v-41z" glyph-name="uni0335" horiz-adv-x="0" unicode="̵"/><glyph d="M-1419 0l784 1333h49l-784 -1333h-49z" glyph-name="uni0338" horiz-adv-x="0" unicode="̸"/><glyph d="M874 1522l-194 190h84l145 -190h-35zM1317 109l379 1222h45l-422 -1356l-391 1106l-396 -1106l-426 1356h46l383 -1222l393 1097z" glyph-name="Wgrave" horiz-adv-x="1847" unicode="Ẁ"/><glyph d="M874 1522l-194 190h84l145 -190h-35zM1317 109l379 1222h45l-422 -1356l-391 1106l-396 -1106l-426 1356h46l383 -1222l393 1097z" glyph-name="wgrave" horiz-adv-x="1847" unicode="ẁ"/><glyph d="M864 1522l144 192h88l-195 -192h-37zM1317 109l379 1222h45l-422 -1356l-391 1106l-396 -1106l-426 1356h46l383 -1222l393 1097z" glyph-name="Wacute" horiz-adv-x="1847" unicode="Ẃ"/><glyph d="M864 1522l144 192h88l-195 -192h-37zM1317 109l379 1222h45l-422 -1356l-391 1106l-396 -1106l-426 1356h46l383 -1222l393 1097z" glyph-name="wacute" horiz-adv-x="1847" unicode="ẃ"/><glyph d="M660 1598q13 13 32 14q18 0 32 -14q13 -13 13 -31t-13 -32q-13 -13 -32 -13q-18 0 -32 13q-13 13 -13 32q0 18 13 31zM1032 1598q14 13 31 14q20 0 33 -14q12 -13 12 -31t-13 -32q-13 -13 -32 -13q-16 0 -31 13q-14 13 -14 32q0 18 14 31zM1317 109l379 1222h45 l-422 -1356l-391 1106l-396 -1106l-426 1356h46l383 -1222l393 1097z" glyph-name="Wdieresis" horiz-adv-x="1847" unicode="Ẅ"/><glyph d="M660 1598q13 13 32 14q18 0 32 -14q13 -13 13 -31t-13 -32q-13 -13 -32 -13q-18 0 -32 13q-13 13 -13 32q0 18 13 31zM1032 1598q14 13 31 14q20 0 33 -14q12 -13 12 -31t-13 -32q-13 -13 -32 -13q-16 0 -31 13q-14 13 -14 32q0 18 14 31zM1317 109l379 1222h45 l-422 -1356l-391 1106l-396 -1106l-426 1356h46l383 -1222l393 1097z" glyph-name="wdieresis" horiz-adv-x="1847" unicode="ẅ"/><glyph d="M684 1522l-195 190h84l146 -190h-35zM700 551l549 780h49l-577 -825v-506h-43v506l-576 825h52z" glyph-name="Ygrave" horiz-adv-x="1400" unicode="Ỳ"/><glyph d="M684 1522l-195 190h84l146 -190h-35zM700 551l549 780h49l-577 -825v-506h-43v506l-576 825h52z" glyph-name="ygrave" horiz-adv-x="1400" unicode="ỳ"/><glyph d="M979 647h-838v41h838v-41z" glyph-name="endash" horiz-adv-x="1120" unicode="–"/><glyph d="M166 1157l59 174h94l-90 -174h-63z" glyph-name="quoteleft" horiz-adv-x="460" unicode="‘"/><glyph d="M166 1157l59 174h94l-90 -174h-63z" glyph-name="quoteright" horiz-adv-x="460" unicode="’"/><glyph d="M131 -88l57 176h97l-90 -176h-64z" glyph-name="quotesinglbase" horiz-adv-x="448" unicode="‚"/><glyph d="M362 1157l62 174h92l-90 -174h-64zM178 1157l60 174h94l-92 -174h-62z" glyph-name="quotedblleft" horiz-adv-x="692" unicode="“"/><glyph d="M362 1157l62 174h92l-90 -174h-64zM178 1157l60 174h94l-92 -174h-62z" glyph-name="quotedblright" horiz-adv-x="692" unicode="”"/><glyph d="M131 -88l57 176h97l-90 -176h-64zM131 -88h64l90 176h-97z" glyph-name="quotedblbase" horiz-adv-x="448" unicode="„"/><glyph d="M184.5 18.5q-18.5 18.5 -18.5 44.5q0 25 18.5 43.5t44.5 18.5q25 0 43.5 -18.5t18.5 -43.5q0 -27 -18.5 -45t-43.5 -18q-26 0 -44.5 18.5zM437.5 18.5q-19.5 18.5 -19.5 44.5q0 25 19.5 43.5t45.5 18.5q27 0 45.5 -18.5t18.5 -43.5q0 -27 -18.5 -45t-45.5 -18 q-26 0 -45.5 18.5zM693.5 18.5q-19.5 18.5 -19.5 42.5q0 27 19.5 45.5t43.5 18.5q27 0 46.5 -18.5t19.5 -45.5q0 -25 -19.5 -43t-46.5 -18q-24 0 -43.5 18.5z" glyph-name="ellipsis" horiz-adv-x="966" unicode="…"/><glyph d="M240 666l571 -418v-51l-645 469l645 464v-51z" glyph-name="guilsinglleft" horiz-adv-x="976" unicode="‹"/><glyph d="M166 1133l643 -467l-643 -467v51l571 416l-571 415v52z" glyph-name="guilsinglright" horiz-adv-x="974" unicode="›"/><glyph d="M141 0l787 1331h49l-784 -1331h-52z" glyph-name="fraction" horiz-adv-x="1118" unicode="⁄"/><glyph d="M752.5 1262.5q-121.5 -56.5 -210.5 -156.5t-130 -227h614v-43h-627q-18 -76 -18 -154q0 -72 16 -147h629v-43h-616q39 -129 128 -231.5t211.5 -160t262.5 -57.5h207v-43h-207q-150 0 -283 63.5t-228 175t-134 253.5h-261v43h248q-14 82 -14 147q0 72 16 154h-250v43h263 q41 139 136 248.5t227 171t280 61.5h207v-41h-207q-138 0 -259.5 -56.5z" glyph-name="Euro" horiz-adv-x="1409" unicode="€"/><glyph glyph-name="trademark" horiz-adv-x="1419" unicode="™"/><glyph d="M979 647h-838v41h838v-41z" glyph-name="minus" horiz-adv-x="1120" unicode="−"/><glyph d="M731 1348l596 -1348h-47l-549 1247l-577 -1247h-48z" glyph-name="glyph203"/><glyph d="M731 1348l596 -1348h-47l-549 1247l-577 -1247h-48z" glyph-name="glyph204"/></font>
</defs>
</svg>
