<?xml version="1.0" standalone="no"?>
<!DOCTYPE svg PUBLIC "-//W3C//DTD SVG 1.1//EN" "http://www.w3.org/Graphics/SVG/1.1/DTD/svg11.dtd">
<svg xmlns="http://www.w3.org/2000/svg"><metadata>This SVG WebFont was generated by YouWorkForThem.
Ellen Luff</metadata><defs><font horiz-adv-x="1433" id="ywftsvg"><font-face ascent="1638" bbox="-1669 -410 2169 1833" cap-height="1331" descent="-410" font-family="" font-stretch="normal" font-weight="300" panose-1="0 0 4 0 0 0 0 0 0 0" underline-position="0" underline-thickness="0" unicode-range="U+0020-2212" units-per-em="2048" x-height="1331"/><missing-glyph d="M756 1434v-1844h-584v1844h584zM614 176h-307v-209h307v209zM553 117v-88h-184v88h184zM614 496h-184v-103h62v41h61v-86h-184v148h-62v-209h307v209zM614 721h-61v-123h-246v-61h307v184zM614 831h-307v-61h123v-68h-123v-61h185v129h122v61zM430 1010v-66h-61v66h61z M492 1073h-185v-192h307v63h-122v129zM614 1311h-305v-62h121v-67h-123v-62h307v62h-122v67h122v62zM614 -74h-307v-61h129l-129 -86v-62h307v62h-188l129 86h59v61z" horiz-adv-x="921"/><glyph d="M756 1434v-1844h-584v1844h584zM614 176h-307v-209h307v209zM553 117v-88h-184v88h184zM614 496h-184v-103h62v41h61v-86h-184v148h-62v-209h307v209zM614 721h-61v-123h-246v-61h307v184zM614 831h-307v-61h123v-68h-123v-61h185v129h122v61zM430 1010v-66h-61v66h61z M492 1073h-185v-192h307v63h-122v129zM614 1311h-305v-62h121v-67h-123v-62h307v62h-122v67h122v62zM614 -74h-307v-61h129l-129 -86v-62h307v62h-188l129 86h59v61z" glyph-name=".notdef" horiz-adv-x="921"/><glyph glyph-name="glyph1" horiz-adv-x="0"/><glyph glyph-name="glyph2" horiz-adv-x="682"/><glyph glyph-name="space" horiz-adv-x="710" unicode=" "/><glyph d="M274 1331l-213 -1104h-43l213 1104h43zM-21.5 78q15.5 12 33.5 12q16 0 27.5 -10t11.5 -25l-2 -10q-2 -18 -18.5 -31.5t-34.5 -13.5q-16 0 -26.5 10t-10.5 27v8q4 21 19.5 33z" glyph-name="exclam" horiz-adv-x="491" unicode="!"/><glyph d="M336 1157l94 174h92l-123 -174h-63zM152 1157l92 174h94l-125 -174h-61z" glyph-name="quotedbl" horiz-adv-x="692" unicode="&quot;"/><glyph d="M1501 963h-330l-208 -594h331l-14 -39h-332l-114 -330h-43l114 330h-600l-112 -330h-43l112 330h-330l13 39h331l209 594h-331l14 43h334l110 325h43l-110 -325h598l112 325h43l-112 -325h334zM920 369l208 594h-600l-209 -594h601z" glyph-name="numbersign" horiz-adv-x="1691" unicode="#"/><glyph d="M399.5 1256q-118.5 -44 -184.5 -171q-33 -70 -33 -124q0 -78 52.5 -139.5t150.5 -94.5l274 -86q152 -49 205 -164q18 -43 19 -94q0 -76 -39 -152q-59 -129 -197 -190q-113 -55 -248 -55h-6l-43 -224h-43l43 224q-250 18 -399 192l33 31q156 -180 424 -180q100 0 218.5 43 t180.5 172q33 66 33 127q0 78 -51.5 137t-149.5 92l-274 86q-152 49 -203 166q-20 51 -21 100q0 72 37 146q63 127 199 190q102 51 235 55l45 228h43l-45 -230q250 -6 422 -190l-37 -31q-162 180 -424 180q-98 0 -216.5 -44z" glyph-name="dollar" horiz-adv-x="1267" unicode="$"/><glyph d="M924 84q-84 -70 -183 -70q-86 0 -140 54.5t-54 138.5q0 31 4 47q20 98 103 169t182 71q86 0 140 -55.5t54 -137.5q0 -31 -4 -47q-18 -100 -102 -170zM941 406.5q-46 46.5 -116 46.5q-80 0 -147.5 -58.5t-83.5 -140.5q-4 -25 -4 -39q0 -70 45 -115t115 -45 q82 0 150.5 58.5t82.5 140.5q4 29 4 39q0 67 -46 113.5zM500 914.5q-84 -70.5 -183 -70.5q-86 0 -141 55t-55 141q0 12 4 45q20 100 103 170t184 70q86 0 141 -55.5t55 -139.5q0 -12 -4 -45q-20 -100 -104 -170.5zM519 1236q-46 46 -118 46q-82 0 -149.5 -57.5t-83.5 -139.5 q-4 -25 -4 -38q0 -70 45 -115t117 -45q82 0 150.5 57t84.5 141q4 25 4 37q0 68 -46 114zM29 0l1040 1331h49l-1042 -1331h-47z" glyph-name="percent" horiz-adv-x="1392" unicode="%"/><glyph d="M1130 412l-122 -86l-25 28q76 53 121 88zM628 428q249 -313 339 -428h-58l-135 164l-14 -12q-121 -80 -207 -123t-172 -43q-104 0 -186 36.5t-128.5 102t-46.5 147.5q0 27 7 58q25 125 111.5 200.5t238.5 139.5l-53 67q-33 39 -57.5 95.5t-24.5 125.5q0 31 6 64 q25 131 145 229q57 45 123 68.5t131 23.5q68 0 126 -23.5t97 -68.5q61 -74 62 -170q0 -29 -6 -59q-16 -72 -83 -143.5t-171 -126.5l-25 30q98 51 160.5 115t75.5 125q4 18 4 51q0 92 -53 148q-33 39 -83.5 59t-109.5 20q-119 0 -227 -79q-47 -39 -80 -90.5t-43 -108.5 q-4 -18 -4 -55q0 -104 69 -201q23 -25 272 -338zM752 193l-353 444q-147 -61 -228 -129t-103 -178q-4 -16 -5 -49q0 -109 90.5 -180.5t233.5 -71.5q78 0 163 43t187 112l6 2z" glyph-name="ampersand" horiz-adv-x="1490" unicode="&amp;"/><glyph d="M139 1157l92 174h95l-123 -174h-64z" glyph-name="quotesingle" horiz-adv-x="460" unicode="'"/><glyph d="M289 33l-10 -43q-127 18 -216 116q-39 45 -60 99.5t-21 111.5q0 18 4 52l116 592q14 70 60.5 138t118.5 126q123 94 260 116l-6 -43q-129 -23 -232 -104q-63 -49 -104 -109.5t-56 -123.5q-18 -100 -69 -359l-45 -233q-4 -33 -4 -47q0 -102 71 -185q80 -86 193 -104z" glyph-name="parenleft" horiz-adv-x="698" unicode="("/><glyph d="M-78 33q119 18 228 104q66 49 106.5 109.5t50.5 122.5q25 123 59.5 297t57.5 295q4 16 4 49q0 104 -74 184q-70 82 -186 104l6 43q63 -10 119.5 -40.5t97.5 -75.5q82 -92 82 -207q0 -29 -6 -57l-117 -592q-12 -70 -58 -138.5t-120 -124.5q-59 -47 -127 -77.5t-133 -38.5z " glyph-name="parenright" horiz-adv-x="696" unicode=")"/><glyph d="M143 592l-26 24l305 334l-367 129l21 39l366 -127l80 412h41l-78 -412l416 127l4 -39l-416 -129l179 -334l-39 -24l-180 334z" glyph-name="asterisk" horiz-adv-x="1040" unicode="*"/><glyph d="M887 690l-8 -43h-400l-73 -397h-44l76 397h-397l8 43h397l76 397h43l-76 -397h398z" glyph-name="plus" horiz-adv-x="1169" unicode="+"/><glyph d="M-137 -88l92 176h94l-123 -176h-63z" glyph-name="comma" horiz-adv-x="448" unicode=","/><glyph d="M879 647h-838l8 41h838z" glyph-name="hyphen" horiz-adv-x="1169" unicode="-"/><glyph d="M-62.5 18.5q-15.5 18.5 -11.5 44.5q6 25 27.5 43.5t48.5 18.5q25 0 40 -18.5t9 -43.5q-4 -27 -25.5 -45t-45.5 -18q-27 0 -42.5 18.5z" glyph-name="period" horiz-adv-x="456" unicode="."/><glyph d="M-109 0l1043 1331h49l-1042 -1331h-50z" glyph-name="slash" horiz-adv-x="1118" unicode="/"/><glyph d="M526 16.5q-82 -30.5 -164 -30.5q-80 0 -152.5 31.5t-121.5 88.5q-82 88 -82 209q0 35 4 54l56 284l2 13l4 12q14 82 24 127q6 41 14.5 81t14.5 75q14 70 61 138t119 126q72 57 156 87.5t164 30.5q82 0 154.5 -30.5t121.5 -87.5q82 -94 82 -207q0 -29 -6 -57l-57 -287v-8 l-5 -19l-16 -86q-8 -37 -17.5 -87t-21.5 -105q-12 -70 -58 -138.5t-118 -124.5q-76 -59 -158 -89.5zM755.5 1274q-65.5 29 -139.5 29q-72 0 -147.5 -29t-142.5 -80q-61 -49 -103.5 -110.5t-54.5 -122.5l-55 -283l-2 -12l-2 -13q-27 -137 -58 -284q-4 -29 -4 -43 q0 -104 74 -189q47 -53 111.5 -80.5t136.5 -27.5q74 0 151.5 28.5t138.5 79.5q66 49 108 109.5t52 122.5q29 135 53 278l7 19v8l55 287q6 25 6 51q0 106 -74 182q-45 51 -110.5 80z" glyph-name="zero" horiz-adv-x="1206" unicode="0"/><glyph d="M20 909l543 437l-262 -1346h-43l244 1247l-492 -395z" glyph-name="one" horiz-adv-x="747" unicode="1"/><glyph d="M305 333.5q-221 -237.5 -309 -333.5h-53q88 96 353 382t376 400q61 66 96 137.5t37 139.5q2 59 -20.5 109.5t-65.5 84.5q-70 57 -164 58q-82 0 -171 -43t-175 -127q-18 -14 -76 -76l-29 25q23 25 48.5 49t29.5 30q94 90 192.5 137.5t188.5 47.5q104 0 187 -66 q51 -37 76.5 -94t23.5 -127q-4 -80 -43 -160t-107 -149q-174 -187 -395 -424.5zM698 43h-684l-41 -43h715z" glyph-name="two" horiz-adv-x="1081" unicode="2"/><glyph d="M831 422q0 -31 -6 -62q-20 -102 -95 -188t-183.5 -136t-227.5 -50q-104 0 -187 40t-130 110.5t-47 158.5l2 31l45 28q-4 -16 -4 -51q0 -78 42 -140.5t116.5 -98t169.5 -35.5q106 0 204.5 45t167 120.5t84.5 165.5q6 29 6 54q0 133 -120 248l-70 67l68 55 q70 63 103.5 115.5t49.5 120.5q4 16 4 51q0 98 -70.5 163.5t-177.5 65.5q-80 0 -155.5 -37.5t-127.5 -102t-67 -140.5h-43q16 88 76.5 162.5t145.5 117.5t178 43q123 0 203.5 -74.5t80.5 -187.5q0 -31 -6 -61q-16 -82 -56 -140.5t-116 -125.5q-8 -4 -14 -11.5t-15 -11.5 l41 -35q131 -127 131 -274zM2 354l-45 -28q0 16 6 34h41z" glyph-name="three" horiz-adv-x="1146" unicode="3"/><glyph d="M1059 371l-8 -41h-367l-63 -330h-41l63 330h-711l881 1001h66l-193 -985h-41l182 942l-807 -917h1039z" glyph-name="four" horiz-adv-x="1318" unicode="4"/><glyph d="M576.5 38q-109.5 -52 -228.5 -52q-180 0 -289 102q-41 39 -62.5 89t-21.5 102q0 16 5 45h40q-4 -25 -4 -39q0 -92 76 -164q47 -45 114.5 -68.5t147.5 -23.5q109 0 208.5 47t166 127t84.5 174q6 29 6 53q0 100 -69 176q-45 47 -114 71.5t-149 24.5h-381l166 629h787 l-6 -43h-748l-147 -543h336q188 0 288 -108q80 -82 80 -199q0 -31 -6 -61q-20 -106 -95 -196.5t-184.5 -142.5z" glyph-name="five" horiz-adv-x="1159" unicode="5"/><glyph d="M659 1341q-244 -344 -481 -669q139 86 295 86q106 0 190.5 -42t131.5 -115t47 -161q0 -31 -6 -61q-20 -102 -96 -189.5t-186 -138.5t-228 -51q-106 0 -189.5 41t-130.5 113.5t-47 160.5q0 31 6 64q12 61 45 122.5t100.5 157t254.5 347.5l247 335h47zM263 670 q-99 -45 -168.5 -122t-88.5 -169q-4 -18 -4 -53q0 -80 43 -144.5t119 -101.5t172 -37q106 0 204.5 45t167 123t85.5 168q6 29 6 57q0 78 -43 141.5t-119 100.5t-170 37q-105 0 -204 -45z" glyph-name="six" horiz-adv-x="1107" unicode="6"/><glyph d="M1083 1331l-956 -1331h-47l928 1292h-877l6 39h946z" glyph-name="seven" horiz-adv-x="1193" unicode="7"/><glyph d="M766.5 609q64.5 -79 64.5 -183q0 -33 -6 -64q-20 -102 -95 -189t-183.5 -137t-227.5 -50q-104 0 -187 41t-129 111.5t-46 158.5q0 33 6 65q25 125 127.5 223.5t241.5 135.5q-72 29 -114 92.5t-42 144.5q0 31 6 62q16 88 76.5 162.5t145.5 117.5t178 43q125 0 204.5 -73.5 t79.5 -188.5q0 -31 -6 -61q-18 -100 -93 -181t-175 -118q110 -33 174.5 -112zM219 969q0 -98 69.5 -165t178.5 -67q80 0 155.5 39t129 103.5t67.5 140.5q6 29 6 51q0 98 -70.5 165t-179.5 67q-80 0 -155.5 -38t-127.5 -103.5t-67 -141.5q-6 -26 -6 -51zM530.5 74 q98.5 45 167 121.5t84.5 166.5q6 29 6 56q0 78 -43 141.5t-118.5 100t-169.5 36.5q-104 0 -201.5 -45t-165 -121.5t-86.5 -167.5q-6 -27 -6 -55q0 -78 42 -141.5t116.5 -100t169.5 -36.5q106 0 204.5 45z" glyph-name="eight" horiz-adv-x="1124" unicode="8"/><glyph d="M248 0q72 98 252 350l237 328q-145 -86 -295 -86q-106 0 -190 42t-131 114.5t-47 162.5q0 31 6 62q20 102 96 189t186.5 138.5t227.5 51.5q106 0 189 -41t130 -114t47 -161q0 -29 -6 -63q-10 -53 -39.5 -108.5t-124 -188.5t-239.5 -332l-252 -344h-47zM648.5 680 q99.5 45 171 123t89.5 170q6 29 6 53q0 80 -43 144.5t-118.5 101.5t-171.5 37q-106 0 -206 -45t-168.5 -123t-84.5 -168q-6 -27 -6 -55q0 -80 42 -144.5t117.5 -101.5t172.5 -37q100 0 199.5 45z" glyph-name="nine" horiz-adv-x="1155" unicode="9"/><glyph d="M-34.5 159.5q-14.5 18.5 -10.5 45.5q6 27 27.5 45t46.5 18q27 0 42 -18.5t9 -44.5q-4 -27 -26.5 -45.5t-49.5 -18.5q-24 0 -38.5 18.5zM40 546.5q-13 18.5 -9 45.5q2 25 25.5 43t47.5 18q27 0 41.5 -18.5t10.5 -42.5q-4 -27 -28 -45.5t-50 -18.5q-25 0 -38 18.5z" glyph-name="colon" horiz-adv-x="456" unicode=":"/><glyph d="M46 366.5q-15 18.5 -11 45.5q6 25 28.5 44t47.5 19t40 -19.5t11 -43.5q-6 -27 -27.5 -45.5t-46.5 -18.5q-27 0 -42 18.5zM-102 -86l96 174h92l-123 -174h-65z" glyph-name="semicolon" horiz-adv-x="497" unicode=";"/><glyph d="M117 666l489 -418l-10 -51l-551 469l733 462l-10 -51z" glyph-name="less" horiz-adv-x="974" unicode="&lt;"/><glyph d="M827 393h-837l10 43h838zM928 901h-838l6 41h838z" glyph-name="equal" horiz-adv-x="1169" unicode="="/><glyph d="M135 1133l555 -467l-737 -467l12 51l651 416l-491 415z" glyph-name="greater" horiz-adv-x="976" unicode=">"/><glyph d="M408 311l-21 -98h-41l19 98q20 109 67 165t135 116q12 8 30.5 20.5t31.5 22.5q113 78 164 131q90 96 110 205q6 29 6 55q0 78 -43 141.5t-118.5 99.5t-169.5 36q-106 0 -205 -44.5t-166.5 -121t-83.5 -166.5h-43q16 76 62 144.5t118 121.5t156 81t170 28q88 0 161.5 -28 t122.5 -81q82 -88 82 -207q0 -29 -6 -59q-25 -125 -123 -228q-59 -61 -176 -143q-41 -31 -61 -41q-61 -47 -90 -71.5t-52.5 -67.5t-35.5 -109zM304 63.5q13 12.5 34 12.5q16 0 27.5 -10.5t11.5 -26.5v-8q-4 -18 -20.5 -31.5t-34.5 -13.5q-16 0 -26.5 9t-10.5 25l2 11 q4 20 17 32.5z" glyph-name="question" horiz-adv-x="1196" unicode="?"/><glyph d="M1552 819q0 -80 -14 -151q-14 -70 -51 -129.5t-92 -102.5q-51 -41 -109.5 -63.5t-116.5 -22.5q-102 0 -161.5 58.5t-71.5 150.5q-41 -53 -97.5 -84t-117.5 -31q-80 0 -133 53.5t-53 131.5q0 12 4 41q18 92 98 158.5t172 66.5q51 0 92 -24.5t66 -65.5l16 78h41l-47 -248 l-2 -29q0 -90 52 -151.5t149 -61.5q51 0 102 18.5t94 55.5q98 78 125 201q14 70 14 143q0 221 -133 379q-84 102 -206.5 156.5t-268.5 54.5q-199 0 -386 -99.5t-318 -267.5t-170 -366q-14 -82 -15 -140q0 -168 77 -303t215 -213t315 -78q127 0 248.5 40t228.5 114h65 q-123 -94 -264 -145.5t-289 -51.5q-184 0 -330.5 82t-227.5 226.5t-81 320.5q0 78 15 148q41 211 180 389t339 282.5t408 104.5q154 0 283 -57.5t219 -165.5q137 -164 137 -402zM853 529q58 42 81 108l14 63q0 66 -42 109t-107 43q-74 0 -138.5 -54.5t-78.5 -127.5 q-4 -25 -4 -35q0 -63 43 -105.5t108 -42.5q66 0 124 42z" glyph-name="at" horiz-adv-x="1765" unicode="@"/><glyph d="M745 1348l332 -1348h-45l-98 391h-772l-258 -391h-47zM188 432h738l-203 815z" glyph-name="A" unicode="A"/><glyph d="M891 574.5q47 -68.5 47 -154.5q0 -27 -6 -58q-18 -90 -88 -174t-178.5 -136t-239.5 -52h-483l260 1331h370q180 0 271 -98q66 -76 65 -174q0 -25 -6 -53q-23 -109 -108 -193q-57 -55 -133 -90l-21 -6q84 -14 133 -39q70 -35 117 -103.5zM127 729h326q59 0 102 7t86 24 q23 8 68 34.5t91 81t60 130.5q4 33 4 47q0 100 -76.5 169.5t-222.5 69.5h-327zM651.5 89q98.5 46 159.5 120t78 153q6 29 6 52q0 76 -42 135t-103 90q-109 47 -263 47h-368l-123 -643h440q117 0 215.5 46z" glyph-name="B" horiz-adv-x="1230" unicode="B"/><glyph d="M832.5 52.5q-150.5 -66.5 -304.5 -66.5q-162 0 -287.5 71.5t-196.5 196.5t-71 281q0 66 13 133q37 184 157.5 340.5t293.5 248t356 91.5q141 0 261 -57.5t195 -164.5l-39 -28q-72 100 -182 155.5t-244 55.5q-170 0 -331.5 -87t-276.5 -233.5t-147 -320.5 q-12 -63 -13 -125q0 -145 65.5 -262t184.5 -184.5t269 -67.5q143 0 285.5 62.5t252.5 172.5l29 -24q-119 -121 -269.5 -187.5z" glyph-name="C" horiz-adv-x="1413" unicode="C"/><glyph d="M590 52q-131 -52 -273 -52h-374l258 1331h374q141 0 253 -51t182 -150q94 -135 94 -319q0 -74 -14 -143q-27 -133 -93.5 -253t-167.5 -212q-108 -99 -239 -151zM238 1288l-242 -1245h330q135 0 257 48t220 140q92 86 155.5 199t90.5 238q12 68 12 133q0 176 -88 301 q-63 92 -167 139t-239 47h-329z" glyph-name="D" horiz-adv-x="1329" unicode="D"/><glyph d="M815 0h-872l258 1331h872l-6 -43h-829l-117 -600h653l-10 -43h-653l-115 -600h829z" glyph-name="E" horiz-adv-x="1257" unicode="E"/><glyph d="M-14 0h-43l258 1331h870l-6 -43h-827l-117 -600h653l-10 -45h-653z" glyph-name="F" horiz-adv-x="1236" unicode="F"/><glyph d="M1124 637l-123 -637h-473q-160 0 -286.5 71.5t-196.5 196.5t-70 279q0 63 13 127q37 182 157.5 337.5t291.5 246t354 90.5q141 0 257.5 -56.5t190.5 -161.5l-35 -28q-70 98 -180.5 151.5t-243.5 53.5q-170 0 -329.5 -85t-272 -230.5t-147.5 -317.5q-10 -51 -11 -119 q0 -143 66 -261t183.5 -184.5t267.5 -66.5h430l106 551h-481l6 43h526z" glyph-name="G" horiz-adv-x="1466" unicode="G"/><glyph d="M860 0l127 645h-874l-125 -645h-43l258 1331h43l-123 -643h872l123 643h43l-258 -1331h-43z" glyph-name="H" horiz-adv-x="1351" unicode="H"/><glyph d="M12 0h-43l258 1331h43z" glyph-name="I" horiz-adv-x="483" unicode="I"/><glyph d="M437.5 29q-101.5 -43 -206.5 -43q-133 0 -231 75q-96 74 -139 209l43 19q37 -125 125 -192.5t211 -67.5q98 0 188 37.5t166 111.5q166 162 225 451l133 702h43l-135 -702q-29 -147 -90 -270t-147 -207q-84 -80 -185.5 -123z" glyph-name="J" horiz-adv-x="1171" unicode="J"/><glyph d="M879 0h-56l-354 580l-530 -605l262 1356h43l-238 -1218l1065 1218h49l-620 -717z" glyph-name="K" horiz-adv-x="1245" unicode="K"/><glyph d="M791 0h-848l258 1331h41l-248 -1288h805z" glyph-name="L" horiz-adv-x="1210" unicode="L"/><glyph d="M1323 0h-43l233 1202l-841 -1018l-449 1018l-235 -1202h-43l264 1348l479 -1086l897 1086z" glyph-name="M" horiz-adv-x="1769" unicode="M"/><glyph d="M944 -25l-719 1242l-237 -1217h-43l264 1348l719 -1239l235 1222h43z" glyph-name="N" horiz-adv-x="1392" unicode="N"/><glyph d="M884 78q-173 -92 -356 -92q-162 0 -287.5 71.5t-196.5 196.5t-71 281q0 66 13 133q37 184 157.5 340.5t293.5 248t356 91.5q160 0 285.5 -72t196.5 -197t71 -280q0 -63 -13 -131q-35 -184 -155.5 -341t-293.5 -249zM1054 1239q-120 68 -272 68q-170 0 -331.5 -86 t-275.5 -232.5t-146 -320.5q-12 -63 -13 -125q0 -145 65.5 -262t184.5 -184.5t269 -67.5q172 0 334.5 86t276.5 232.5t148 320.5q12 61 13 120q0 145 -66.5 264t-186.5 187z" glyph-name="O" horiz-adv-x="1560" unicode="O"/><glyph d="M-14 0h-43l258 1331h22h447q102 0 185 -40t129 -109.5t46 -155.5q0 -29 -6 -59q-20 -98 -93 -181.5t-179.5 -132.5t-221.5 -49h-426zM238 1288l-127 -643h426q104 0 199 43t162 118t83 161q4 18 4 51q0 117 -91 193.5t-232 76.5h-424z" glyph-name="P" horiz-adv-x="1216" unicode="P"/><glyph d="M1225 394q-82 -128 -201 -224l127 -170h-55l-107 141q-102 -74 -222 -114.5t-239 -40.5q-162 0 -287.5 71.5t-196.5 196.5t-71 281q0 66 13 133q37 184 157.5 340.5t293.5 248t356 91.5q160 0 285.5 -72t196.5 -197t71 -280q0 -63 -13 -131q-26 -146 -108 -274z M758.5 66.5q111.5 37.5 206.5 105.5l-349 473l37 29l351 -473q111 92 187.5 211.5t102.5 255.5q12 61 13 120q0 145 -66.5 264t-186.5 187t-272 68q-172 0 -333.5 -86t-275.5 -232.5t-146 -320.5q-12 -63 -13 -125q0 -145 66.5 -263t184.5 -184.5t270 -66.5 q112 0 223.5 37.5z" glyph-name="Q" horiz-adv-x="1572" unicode="Q"/><glyph d="M788 0l-397 645h107q84 0 131 10.5t106 34.5q84 37 157 113t89 168q4 16 4 51q0 72 -39 133.5t-114.5 99t-180.5 37.5h-418l-247 -1292h-43l258 1331h456q117 0 201 -42t126 -111.5t42 -151.5q0 -37 -4 -55q-23 -106 -97.5 -188.5t-176.5 -131.5q-66 -29 -122.5 -37 t-152.5 -8l369 -606h-54z" glyph-name="R" horiz-adv-x="1234" unicode="R"/><glyph d="M877.5 520.5q37.5 -63.5 37.5 -137.5q0 -14 -4 -47q-18 -96 -98 -177t-197.5 -128t-244.5 -47q-117 0 -209 38.5t-144.5 107.5t-52.5 155l2 26l45 25q-4 -16 -4 -47q0 -74 48 -134.5t133 -94t190 -33.5q117 0 223.5 42t178 112.5t87.5 154.5q4 29 4 41q0 61 -32.5 114.5 t-94.5 92.5q-41 27 -113.5 41t-133.5 20q-12 2 -104.5 18.5t-145.5 41.5q-74 39 -115 103t-41 140q0 33 4 49q18 96 98 177t198 129.5t245 48.5q121 0 217 -44t146.5 -119t41.5 -165l-47 -23q4 29 4 43q0 74 -47 134.5t-132 95.5t-191 35q-117 0 -223.5 -42t-178 -113 t-88.5 -157q-4 -29 -4 -41q0 -66 37 -123t102 -90q33 -16 79 -26t92.5 -17.5t64.5 -11.5q92 -12 153.5 -25.5t108.5 -39.5q68 -39 105.5 -102.5z" glyph-name="S" horiz-adv-x="1261" unicode="S"/><glyph d="M1323 1331l-8 -43h-580l-250 -1288h-43l250 1288h-575l6 43h1200z" glyph-name="T" horiz-adv-x="1431" unicode="T"/><glyph d="M643 23.5q-98 -37.5 -201 -37.5q-102 0 -188 37.5t-141 111.5q-82 111 -82 258q0 43 10 101l160 837h43l-162 -837q-10 -51 -10 -93q0 -133 80 -235q51 -68 126.5 -102.5t170.5 -34.5q94 0 185 34.5t169 102.5q78 66 128 149.5t70 178.5l160 837h41l-162 -837 q-20 -102 -75.5 -194.5t-139.5 -164.5q-84 -74 -182 -111.5z" glyph-name="U" horiz-adv-x="1388" unicode="U"/><glyph d="M471 80l799 1251h45l-866 -1356l-343 1356h48z" glyph-name="V" horiz-adv-x="1415" unicode="V"/><glyph d="M1087 109l617 1222h45l-684 -1356l-178 1106l-611 -1106l-163 1356h45l147 -1222l606 1097z" glyph-name="W" horiz-adv-x="1847" unicode="W"/><glyph d="M897 0h-53l-340 631l-586 -631h-51l620 668l-362 663h49l344 -631l586 631h51l-618 -663z" glyph-name="X" horiz-adv-x="1265" unicode="X"/><glyph d="M555 551l700 780h52l-738 -825l-98 -506h-43l100 506l-419 825h53z" glyph-name="Y" horiz-adv-x="1400" unicode="Y"/><glyph d="M858 0h-838l924 1288h-766l6 43h836l-918 -1288h766z" glyph-name="Z" horiz-adv-x="1286" unicode="Z"/><glyph d="M238 0h-324l258 1331h322l-7 -39h-278l-242 -1249h279z" glyph-name="bracketleft" horiz-adv-x="653" unicode="["/><glyph d="M676 0l-526 1331h49l528 -1331h-51z" glyph-name="backslash" horiz-adv-x="1118" unicode="\"/><glyph d="M238 0h-324l10 43h279l241 1249h-278l6 39h322z" glyph-name="bracketright" horiz-adv-x="653" unicode="]"/><glyph d="M119 885l-27 30l553 463l377 -463l-35 -30l-350 434z" glyph-name="asciicircum" horiz-adv-x="1261" unicode="^"/><glyph d="M1386 0h-1495l9 43h1495z" glyph-name="underscore" horiz-adv-x="1779" unicode="_"/><glyph d="M745 1348l332 -1348h-45l-98 391h-772l-258 -391h-47zM188 432h738l-203 815z" glyph-name="a" unicode="a"/><glyph d="M891 574.5q47 -68.5 47 -154.5q0 -27 -6 -58q-18 -90 -88 -174t-178.5 -136t-239.5 -52h-483l260 1331h370q180 0 271 -98q66 -76 65 -174q0 -25 -6 -53q-23 -109 -108 -193q-57 -55 -133 -90l-21 -6q84 -14 133 -39q70 -35 117 -103.5zM127 729h326q59 0 102 7t86 24 q23 8 68 34.5t91 81t60 130.5q4 33 4 47q0 100 -76.5 169.5t-222.5 69.5h-327zM651.5 89q98.5 46 159.5 120t78 153q6 29 6 52q0 76 -42 135t-103 90q-109 47 -263 47h-368l-123 -643h440q117 0 215.5 46z" glyph-name="b" horiz-adv-x="1230" unicode="b"/><glyph d="M832.5 52.5q-150.5 -66.5 -304.5 -66.5q-162 0 -287.5 71.5t-196.5 196.5t-71 281q0 66 13 133q37 184 157.5 340.5t293.5 248t356 91.5q141 0 261 -57.5t195 -164.5l-39 -28q-72 100 -182 155.5t-244 55.5q-170 0 -331.5 -87t-276.5 -233.5t-147 -320.5 q-12 -63 -13 -125q0 -145 65.5 -262t184.5 -184.5t269 -67.5q143 0 285.5 62.5t252.5 172.5l29 -24q-119 -121 -269.5 -187.5z" glyph-name="c" horiz-adv-x="1413" unicode="c"/><glyph d="M590 52q-131 -52 -273 -52h-374l258 1331h374q141 0 253 -51t182 -150q94 -135 94 -319q0 -74 -14 -143q-27 -133 -93.5 -253t-167.5 -212q-108 -99 -239 -151zM238 1288l-242 -1245h330q135 0 257 48t220 140q92 86 155.5 199t90.5 238q12 68 12 133q0 176 -88 301 q-63 92 -167 139t-239 47h-329z" glyph-name="d" horiz-adv-x="1329" unicode="d"/><glyph d="M815 0h-872l258 1331h872l-6 -43h-829l-117 -600h653l-10 -43h-653l-115 -600h829z" glyph-name="e" horiz-adv-x="1257" unicode="e"/><glyph d="M-14 0h-43l258 1331h870l-6 -43h-827l-117 -600h653l-10 -45h-653z" glyph-name="f" horiz-adv-x="1236" unicode="f"/><glyph d="M1124 637l-123 -637h-473q-160 0 -286.5 71.5t-196.5 196.5t-70 279q0 63 13 127q37 182 157.5 337.5t291.5 246t354 90.5q141 0 257.5 -56.5t190.5 -161.5l-35 -28q-70 98 -180.5 151.5t-243.5 53.5q-170 0 -329.5 -85t-272 -230.5t-147.5 -317.5q-10 -51 -11 -119 q0 -143 66 -261t183.5 -184.5t267.5 -66.5h430l106 551h-481l6 43h526z" glyph-name="g" horiz-adv-x="1466" unicode="g"/><glyph d="M860 0l127 645h-874l-125 -645h-43l258 1331h43l-123 -643h872l123 643h43l-258 -1331h-43z" glyph-name="h" horiz-adv-x="1351" unicode="h"/><glyph d="M12 0h-43l258 1331h43z" glyph-name="i" horiz-adv-x="483" unicode="i"/><glyph d="M437.5 29q-101.5 -43 -206.5 -43q-133 0 -231 75q-96 74 -139 209l43 19q37 -125 125 -192.5t211 -67.5q98 0 188 37.5t166 111.5q166 162 225 451l133 702h43l-135 -702q-29 -147 -90 -270t-147 -207q-84 -80 -185.5 -123z" glyph-name="j" horiz-adv-x="1171" unicode="j"/><glyph d="M879 0h-56l-354 580l-530 -605l262 1356h43l-238 -1218l1065 1218h49l-620 -717z" glyph-name="k" horiz-adv-x="1245" unicode="k"/><glyph d="M791 0h-848l258 1331h41l-248 -1288h805z" glyph-name="l" horiz-adv-x="1210" unicode="l"/><glyph d="M1323 0h-43l233 1202l-841 -1018l-449 1018l-235 -1202h-43l264 1348l479 -1086l897 1086z" glyph-name="m" horiz-adv-x="1769" unicode="m"/><glyph d="M944 -25l-719 1242l-237 -1217h-43l264 1348l719 -1239l235 1222h43z" glyph-name="n" horiz-adv-x="1392" unicode="n"/><glyph d="M884 78q-173 -92 -356 -92q-162 0 -287.5 71.5t-196.5 196.5t-71 281q0 66 13 133q37 184 157.5 340.5t293.5 248t356 91.5q160 0 285.5 -72t196.5 -197t71 -280q0 -63 -13 -131q-35 -184 -155.5 -341t-293.5 -249zM1054 1239q-120 68 -272 68q-170 0 -331.5 -86 t-275.5 -232.5t-146 -320.5q-12 -63 -13 -125q0 -145 65.5 -262t184.5 -184.5t269 -67.5q172 0 334.5 86t276.5 232.5t148 320.5q12 61 13 120q0 145 -66.5 264t-186.5 187z" glyph-name="o" horiz-adv-x="1560" unicode="o"/><glyph d="M-14 0h-43l258 1331h22h447q102 0 185 -40t129 -109.5t46 -155.5q0 -29 -6 -59q-20 -98 -93 -181.5t-179.5 -132.5t-221.5 -49h-426zM238 1288l-127 -643h426q104 0 199 43t162 118t83 161q4 18 4 51q0 117 -91 193.5t-232 76.5h-424z" glyph-name="p" horiz-adv-x="1216" unicode="p"/><glyph d="M1225 394q-82 -128 -201 -224l127 -170h-55l-107 141q-102 -74 -222 -114.5t-239 -40.5q-162 0 -287.5 71.5t-196.5 196.5t-71 281q0 66 13 133q37 184 157.5 340.5t293.5 248t356 91.5q160 0 285.5 -72t196.5 -197t71 -280q0 -63 -13 -131q-26 -146 -108 -274z M758.5 66.5q111.5 37.5 206.5 105.5l-349 473l37 29l351 -473q111 92 187.5 211.5t102.5 255.5q12 61 13 120q0 145 -66.5 264t-186.5 187t-272 68q-172 0 -333.5 -86t-275.5 -232.5t-146 -320.5q-12 -63 -13 -125q0 -145 66.5 -263t184.5 -184.5t270 -66.5 q112 0 223.5 37.5z" glyph-name="q" horiz-adv-x="1572" unicode="q"/><glyph d="M788 0l-397 645h107q84 0 131 10.5t106 34.5q84 37 157 113t89 168q4 16 4 51q0 72 -39 133.5t-114.5 99t-180.5 37.5h-418l-247 -1292h-43l258 1331h456q117 0 201 -42t126 -111.5t42 -151.5q0 -37 -4 -55q-23 -106 -97.5 -188.5t-176.5 -131.5q-66 -29 -122.5 -37 t-152.5 -8l369 -606h-54z" glyph-name="r" horiz-adv-x="1234" unicode="r"/><glyph d="M877.5 520.5q37.5 -63.5 37.5 -137.5q0 -14 -4 -47q-18 -96 -98 -177t-197.5 -128t-244.5 -47q-117 0 -209 38.5t-144.5 107.5t-52.5 155l2 26l45 25q-4 -16 -4 -47q0 -74 48 -134.5t133 -94t190 -33.5q117 0 223.5 42t178 112.5t87.5 154.5q4 29 4 41q0 61 -32.5 114.5 t-94.5 92.5q-41 27 -113.5 41t-133.5 20q-12 2 -104.5 18.5t-145.5 41.5q-74 39 -115 103t-41 140q0 33 4 49q18 96 98 177t198 129.5t245 48.5q121 0 217 -44t146.5 -119t41.5 -165l-47 -23q4 29 4 43q0 74 -47 134.5t-132 95.5t-191 35q-117 0 -223.5 -42t-178 -113 t-88.5 -157q-4 -29 -4 -41q0 -66 37 -123t102 -90q33 -16 79 -26t92.5 -17.5t64.5 -11.5q92 -12 153.5 -25.5t108.5 -39.5q68 -39 105.5 -102.5z" glyph-name="s" horiz-adv-x="1261" unicode="s"/><glyph d="M1323 1331l-8 -43h-580l-250 -1288h-43l250 1288h-575l6 43h1200z" glyph-name="t" horiz-adv-x="1431" unicode="t"/><glyph d="M643 23.5q-98 -37.5 -201 -37.5q-102 0 -188 37.5t-141 111.5q-82 111 -82 258q0 43 10 101l160 837h43l-162 -837q-10 -51 -10 -93q0 -133 80 -235q51 -68 126.5 -102.5t170.5 -34.5q94 0 185 34.5t169 102.5q78 66 128 149.5t70 178.5l160 837h41l-162 -837 q-20 -102 -75.5 -194.5t-139.5 -164.5q-84 -74 -182 -111.5z" glyph-name="u" horiz-adv-x="1388" unicode="u"/><glyph d="M471 80l799 1251h45l-866 -1356l-343 1356h48z" glyph-name="v" horiz-adv-x="1415" unicode="v"/><glyph d="M1087 109l617 1222h45l-684 -1356l-178 1106l-611 -1106l-163 1356h45l147 -1222l606 1097z" glyph-name="w" horiz-adv-x="1847" unicode="w"/><glyph d="M897 0h-53l-340 631l-586 -631h-51l620 668l-362 663h49l344 -631l586 631h51l-618 -663z" glyph-name="x" horiz-adv-x="1265" unicode="x"/><glyph d="M555 551l700 780h52l-738 -825l-98 -506h-43l100 506l-419 825h53z" glyph-name="y" horiz-adv-x="1400" unicode="y"/><glyph d="M858 0h-838l924 1288h-766l6 43h836l-918 -1288h766z" glyph-name="z" horiz-adv-x="1286" unicode="z"/><glyph d="M102 270q0 -82 55.5 -145.5t151.5 -91.5l-8 -43q-111 29 -176.5 103.5t-65.5 170.5q0 35 4 51l48 240q2 12 -27 57t-39 62q16 16 62.5 61t48.5 56l47 237q20 111 121.5 201t240.5 123l-6 -43q-123 -33 -209 -110t-104 -171l-47 -237q-6 -41 -95 -117q27 -41 41.5 -67.5 t8.5 -51.5l-48 -240q-4 -29 -4 -45z" glyph-name="braceleft" horiz-adv-x="718" unicode="{"/><glyph d="M4 0h-41l256 1331h43z" glyph-name="bar" horiz-adv-x="468" unicode="|"/><glyph d="M128 143.5q87 77.5 103 171.5l48 240q6 25 29.5 52.5t62.5 66.5q-25 37 -38.5 64.5t-8.5 52.5l47 237q4 29 4 43q0 82 -55.5 145.5t-149.5 92.5l8 43q111 -29 175.5 -102.5t64.5 -170.5q0 -35 -4 -51l-47 -237q-2 -10 25.5 -55.5t37.5 -61.5q-16 -16 -61 -61.5t-47 -57.5 l-48 -240q-20 -111 -121.5 -200.5t-240.5 -124.5l10 43q119 33 206 110.5z" glyph-name="braceright" horiz-adv-x="716" unicode="}"/><glyph d="M-27 0l215 1104h43l-215 -1104h-43zM271.5 1255.5q-17.5 -14.5 -33.5 -14.5t-26.5 11.5t-10.5 25.5v8q2 20 17 32.5t36 12.5q16 0 26.5 -10t10.5 -27v-8q-2 -16 -19.5 -30.5z" glyph-name="exclamdown" horiz-adv-x="491" unicode="¡"/><glyph d="M839.5 55.5q-145.5 -65.5 -294.5 -69.5l-43 -219h-41l43 219q-156 6 -277 78.5t-187.5 195.5t-66.5 275q0 66 13 133q35 180 151.5 332.5t283.5 245.5t347 100l43 227h41l-43 -227q137 -2 251 -60.5t187 -161.5l-39 -28q-70 98 -181.5 152.5t-244.5 54.5 q-170 0 -331.5 -86.5t-275.5 -231.5t-146 -317q-12 -63 -13 -125q0 -145 65.5 -262t184.5 -184.5t269 -67.5q145 0 285.5 61.5t252.5 173.5l29 -24q-117 -119 -262.5 -184.5z" glyph-name="cent" horiz-adv-x="1413" unicode="¢"/><glyph d="M745 43l-10 -43h-794l10 47q125 23 223 105q63 49 105.5 109.5t54.5 121.5q4 33 35 192l16 80h-248l6 43h250l13 66l40 211q16 70 62.5 137.5t116.5 124.5q72 57 156.5 89t164.5 32h12l-10 -43h-12q-72 0 -147.5 -29t-143.5 -80q-61 -49 -102 -110.5t-54 -120.5l-53 -277 h242l-6 -43h-244q-47 -225 -51 -272q-16 -70 -63.5 -138.5t-116.5 -123.5q-68 -53 -131 -78h679z" glyph-name="sterling" horiz-adv-x="1177" unicode="£"/><glyph d="M615.5 711.5q-58.5 -25.5 -117.5 -25.5q-94 0 -154.5 60.5t-60.5 152.5q0 25 6 51q23 109 114 186.5t197 77.5q55 0 101.5 -22.5t76.5 -65.5l-41 -26q-23 35 -61.5 53t-83.5 18q-90 0 -167 -65.5t-93 -155.5q-4 -29 -4 -45q0 -76 49 -126t129 -50q100 0 186 82l29 -27 q-47 -47 -105.5 -72.5zM706.5 542.5q-120.5 -63.5 -249.5 -63.5q-113 0 -202 50.5t-138 138.5t-49 196q0 47 8 88q25 129 109.5 237.5t205.5 172t248 63.5q113 0 202 -49t138 -136t49 -196q0 -51 -8 -92q-25 -129 -109 -237.5t-204.5 -172zM815 1339q-80 45 -184 45 q-117 0 -225.5 -58t-186.5 -157.5t-100 -216.5q-8 -39 -8 -82q0 -98 45 -177t124.5 -125t182.5 -46q117 0 227.5 58.5t187 157t99.5 214.5q8 39 8 84q0 98 -45 178t-125 125z" glyph-name="copyright" horiz-adv-x="1226" unicode="©"/><glyph d="M119 666l489 -418l-10 -51l-553 469l735 462l-8 -51zM426 666l489 -418l-10 -51l-551 469l733 462l-8 -51z" glyph-name="guillemotleft" horiz-adv-x="1284" unicode="«"/><glyph d="M495 1006.5q-85 -70.5 -184 -70.5q-86 0 -140 54t-54 138q0 31 4 48q20 100 102 170.5t183 70.5q86 0 141 -55t55 -139q0 -31 -4 -47q-18 -99 -103 -169.5zM513 1328q-46 46 -116 46q-82 0 -149.5 -58.5t-83.5 -139.5q-4 -29 -4 -39q0 -68 46 -113t116 -45 q80 0 149.5 57.5t83.5 139.5q4 25 4 38q0 68 -46 114z" glyph-name="degree" horiz-adv-x="761" unicode="°"/><glyph d="M444 1133l553 -467l-735 -467l12 51l654 416l-492 415zM135 1130l555 -464l-737 -467l12 51l651 416l-491 413z" glyph-name="guillemotright" horiz-adv-x="1284" unicode="»"/><glyph d="M547 1020l18 98h43l-18 -98q-14 -74 -44 -124t-63.5 -81t-95.5 -74l-65 -45q-111 -80 -164 -133q-86 -92 -107 -201q-6 -27 -6 -53q0 -80 42 -143.5t117 -100t169 -36.5q106 0 205.5 45t167 121.5t83.5 166.5h43q-33 -160 -180 -268q-72 -53 -154.5 -80.5t-170.5 -27.5 q-84 0 -158 28.5t-123 79.5q-84 88 -84 201q0 23 8 67q25 125 121 228q53 57 172 139l64 45q82 55 121 103.5t59 142.5zM650.5 1268.5q-17.5 -13.5 -38.5 -13.5q-14 0 -24 10.5t-10 26.5v8q2 18 19 32t34 14q18 0 28.5 -10.5t10.5 -26.5v-9q-2 -18 -19.5 -31.5z" glyph-name="questiondown" horiz-adv-x="1193" unicode="¿"/><glyph d="M754 1522l-158 190h86l106 -190h-34zM745 1348l332 -1348h-45l-98 391h-772l-258 -391h-47zM188 432h738l-203 815z" glyph-name="Agrave" unicode="À"/><glyph d="M741 1522l181 192h88l-232 -192h-37zM745 1348l332 -1348h-45l-98 391h-772l-258 -391h-47zM188 432h738l-203 815z" glyph-name="Aacute" unicode="Á"/><glyph d="M950 1522h-32l-123 147l-183 -147h-32l182 190h84zM745 1348l332 -1348h-45l-98 391h-772l-258 -391h-47zM188 432h738l-203 815z" glyph-name="Acircumflex" unicode="Â"/><glyph d="M526 1550q-29 -39 -30 -41l-35 17l24 32t51 50q32 27 72 39q25 6 47 6q66 0 129 -49q51 -41 103 -41q10 0 35 4q57 16 88 55t32 41l33 -16q0 -4 -20 -30t-55 -52q-34 -27 -76 -39q-25 -6 -47 -6q-63 0 -125 49q-49 41 -103 41q-25 0 -35 -4q-59 -17 -88 -56zM745 1348 l332 -1348h-45l-98 391h-772l-258 -391h-47zM188 432h738l-203 815z" glyph-name="Atilde" unicode="Ã"/><glyph d="M554 1598q15 13 34 14q16 0 27 -10t12 -25l-2 -10q-2 -18 -19 -32q-16 -13 -35 -13q-16 0 -26 10t-10 27v8q4 18 19 31zM926 1598q16 13 32 14q18 0 29 -10q10 -10 10 -27v-8q-4 -18 -20 -32q-16 -13 -35 -13q-16 0 -27 10q-10 10 -10 24l2 11q3 18 19 31zM745 1348 l332 -1348h-45l-98 391h-772l-258 -391h-47zM188 432h738l-203 815z" glyph-name="Adieresis" unicode="Ä"/><glyph d="M892 1567q-54 -45 -120 -45q-57 0 -92 34q-35 35 -35 91q0 20 2 30q12 63 67 110q54 46 120 46q55 0 92 -36t37 -89q0 -10 -5 -31q-12 -65 -66 -110zM893 1763q-27 27 -68 27q-49 0 -87 -33t-48 -80q-2 -8 -2 -22q0 -41 27 -67t67 -25q47 0 87 33q40 34 49 81q2 6 2 19 q0 40 -27 67zM745 1348l332 -1348h-45l-98 391h-772l-258 -391h-47zM188 432h738l-203 815z" glyph-name="Aring" unicode="Å"/><glyph d="M1825 1331l-8 -43h-828l-117 -600h654l-10 -43h-652l-116 -602h827l-8 -43h-871l88 461h-579l-301 -461h-47l874 1331h1094zM793 504l153 784h-194l-519 -784h560z" glyph-name="AE" horiz-adv-x="2009" unicode="Æ"/><glyph d="M832.5 52.5q-150.5 -66.5 -304.5 -66.5q-162 0 -287.5 71.5t-196.5 196.5t-71 281q0 66 13 133q37 184 157.5 340.5t293.5 248t356 91.5q141 0 261 -57.5t195 -164.5l-39 -28q-72 100 -182 155.5t-244 55.5q-170 0 -331.5 -87t-276.5 -233.5t-147 -320.5 q-12 -63 -13 -125q0 -145 65.5 -262t184.5 -184.5t269 -67.5q143 0 285.5 62.5t252.5 172.5l29 -24q-119 -121 -269.5 -187.5zM584 -227q-47 -33 -113 -33q-63 0 -102 33q-33 25 -33 63q0 14 2 21h43q-8 -29 21.5 -52.5t74.5 -23.5t84 22.5t47 53.5q4 31 -25.5 53t-74.5 22 h-21l17 88h43l-10 -47q45 -2 79 -30q41 -33 35 -86q-14 -53 -67 -84z" glyph-name="Ccedilla" horiz-adv-x="1413" unicode="Ç"/><glyph d="M670 1522l-158 190h86l107 -190h-35zM815 0h-872l258 1331h872l-6 -43h-829l-117 -600h653l-10 -43h-653l-115 -600h829z" glyph-name="Egrave" horiz-adv-x="1257" unicode="È"/><glyph d="M666 1522l180 192h88l-232 -192h-36zM815 0h-872l258 1331h872l-6 -43h-829l-117 -600h653l-10 -43h-653l-115 -600h829z" glyph-name="Eacute" horiz-adv-x="1257" unicode="É"/><glyph d="M887 1522h-33l-123 147l-182 -147h-33l182 190h84zM815 0h-872l258 1331h872l-6 -43h-829l-117 -600h653l-10 -43h-653l-115 -600h829z" glyph-name="Ecircumflex" horiz-adv-x="1257" unicode="Ê"/><glyph d="M488 1598q15 13 34 14q16 0 28 -10q11 -10 11 -25l-2 -10q-2 -18 -18 -32q-16 -13 -35 -13q-16 0 -27 10q-10 10 -10 27v8q4 18 19 31zM860 1598q16 13 33 14q18 0 29 -10q10 -10 10 -27v-8q-4 -18 -21 -32q-16 -13 -34 -13q-16 0 -27 10q-10 10 -10 24l2 11q2 18 18 31z M815 0h-872l258 1331h872l-6 -43h-829l-117 -600h653l-10 -43h-653l-115 -600h829z" glyph-name="Edieresis" horiz-adv-x="1257" unicode="Ë"/><glyph d="M20 0h-43l259 1331h43zM274 1497l-155 195h84l104 -195h-33z" glyph-name="Igrave" horiz-adv-x="491" unicode="Ì"/><glyph d="M12 0h-43l258 1331h43zM262 1497l182 193h86l-235 -193h-33z" glyph-name="Iacute" horiz-adv-x="485" unicode="Í"/><glyph d="M14 0h-41l258 1331h41zM475 1497h-37l-121 152l-184 -152h-33l183 193h86z" glyph-name="Icircumflex" horiz-adv-x="487" unicode="Î"/><glyph d="M35 0h-43l258 1331h43zM105.5 1575q13.5 12 33.5 12q16 0 27.5 -10t11.5 -27v-8q-4 -18 -20.5 -31.5t-34.5 -13.5q-16 0 -26.5 10.5t-10.5 24.5l2 10q4 21 17.5 33zM474 1574q15 13 34 13q18 0 29.5 -10t11.5 -27v-8q-4 -16 -20.5 -30.5t-36.5 -14.5q-14 0 -24.5 11.5 t-10.5 27.5v6q2 19 17 32z" glyph-name="Idieresis" horiz-adv-x="532" unicode="Ï"/><glyph d="M1333 811q0 -74 -14 -143q-27 -133 -94.5 -253t-167.5 -212q-109 -98 -239 -150.5t-271 -52.5h-375l127 645h-231l10 43h229l123 643h375q143 0 253.5 -51t178.5 -150q96 -133 96 -319zM1189.5 430q63.5 113 88.5 238q12 68 12 133q0 176 -88 301q-66 92 -169 139 t-236 47h-330l-117 -600h565l-10 -43h-565l-115 -602h330q272 0 477 188q94 86 157.5 199z" glyph-name="Eth" horiz-adv-x="1558" unicode="Ð"/><glyph d="M518 1550q-29 -39 -31 -41l-34 17l24 32t50 50q32 27 73 39q25 6 47 6q66 0 129 -49q51 -41 103 -41q10 0 34 4q57 16 88 55t33 41l33 -16q0 -4 -20 -30t-55 -52q-34 -27 -77 -39q-25 -6 -47 -6q-63 0 -125 49q-49 41 -102 41q-25 0 -35 -4q-59 -17 -88 -56zM944 -25 l-719 1242l-237 -1217h-43l264 1348l719 -1239l235 1222h43z" glyph-name="Ntilde" horiz-adv-x="1392" unicode="Ñ"/><glyph d="M782 1522l-157 190h86l106 -190h-35zM884 78q-173 -92 -356 -92q-162 0 -287 71q-126 72 -197 197t-71 281q0 66 13 133q37 184 157 341q121 157 294 247q173 91 356 92q160 0 285 -72q126 -72 197 -197t71 -280q0 -63 -13 -131q-35 -184 -155 -341q-121 -157 -294 -249z M1054 1239q-120 68 -272 68q-170 0 -331 -86q-162 -86 -276 -233q-114 -146 -146 -320q-12 -63 -13 -125q0 -145 66 -262t184 -185q119 -68 269 -67q172 0 334 86q163 86 277 232t148 321q12 61 13 120q0 145 -67 265q-66 118 -186 186z" glyph-name="Ograve" horiz-adv-x="1560" unicode="Ò"/><glyph d="M782 1522l181 192h88l-232 -192h-37zM884 78q-173 -92 -356 -92q-162 0 -287 71q-126 72 -197 197t-71 281q0 66 13 133q37 184 157 341q121 157 294 247q173 91 356 92q160 0 285 -72q126 -72 197 -197t71 -280q0 -63 -13 -131q-35 -184 -155 -341q-121 -157 -294 -249z M1054 1239q-120 68 -272 68q-170 0 -331 -86q-162 -86 -276 -233q-114 -146 -146 -320q-12 -63 -13 -125q0 -145 66 -262t184 -185q119 -68 269 -67q172 0 334 86q163 86 277 232t148 321q12 61 13 120q0 145 -67 265q-66 118 -186 186z" glyph-name="Oacute" horiz-adv-x="1560" unicode="Ó"/><glyph d="M1004 1522h-33l-123 147l-182 -147h-33l182 190h84zM884 78q-173 -92 -356 -92q-162 0 -287 71q-126 72 -197 197t-71 281q0 66 13 133q37 184 157 341q121 157 294 247q173 91 356 92q160 0 285 -72q126 -72 197 -197t71 -280q0 -63 -13 -131q-35 -184 -155 -341 q-121 -157 -294 -249zM1054 1239q-120 68 -272 68q-170 0 -331 -86q-162 -86 -276 -233q-114 -146 -146 -320q-12 -63 -13 -125q0 -145 66 -262t184 -185q119 -68 269 -67q172 0 334 86q163 86 277 232t148 321q12 61 13 120q0 145 -67 265q-66 118 -186 186z" glyph-name="Ocircumflex" horiz-adv-x="1560" unicode="Ô"/><glyph d="M559 1550q-29 -39 -31 -41l-34 17l24 32t50 50q32 27 73 39q25 6 47 6q66 0 129 -49q51 -41 103 -41q10 0 34 4q57 16 88 55t33 41l33 -16q0 -4 -21 -30q-20 -26 -54 -52q-34 -27 -77 -39q-25 -6 -47 -6q-63 0 -125 49q-49 41 -102 41q-25 0 -35 -4q-59 -17 -88 -56z M884 78q-173 -92 -356 -92q-162 0 -287 71q-126 72 -197 197t-71 281q0 66 13 133q37 184 157 341q121 157 294 247q173 91 356 92q160 0 285 -72q126 -72 197 -197t71 -280q0 -63 -13 -131q-35 -184 -155 -341q-121 -157 -294 -249zM1054 1239q-120 68 -272 68 q-170 0 -331 -86q-162 -86 -276 -233q-114 -146 -146 -320q-12 -63 -13 -125q0 -145 66 -262t184 -185q119 -68 269 -67q172 0 334 86q163 86 277 232t148 321q12 61 13 120q0 145 -67 265q-66 118 -186 186z" glyph-name="Otilde" horiz-adv-x="1560" unicode="Õ"/><glyph d="M595 1598q15 13 34 14q16 0 27 -10t12 -25l-2 -10q-2 -18 -19 -32q-16 -13 -35 -13q-16 0 -26 10t-11 27v8q5 18 20 31zM967 1598q16 13 32 14q18 0 29 -10q10 -10 10 -27v-8q-4 -18 -20 -32q-16 -13 -35 -13q-16 0 -27 10q-10 10 -10 24l2 11q3 18 19 31zM884 78 q-173 -92 -356 -92q-162 0 -287 71q-126 72 -197 197t-71 281q0 66 13 133q37 184 157 341q121 157 294 247q173 91 356 92q160 0 285 -72q126 -72 197 -197t71 -280q0 -63 -13 -131q-35 -184 -155 -341q-121 -157 -294 -249zM1054 1239q-120 68 -272 68q-170 0 -331 -86 q-162 -86 -276 -233q-114 -146 -146 -320q-12 -63 -13 -125q0 -145 66 -262t184 -185q119 -68 269 -67q172 0 334 86q163 86 277 232t148 321q12 61 13 120q0 145 -67 265q-66 118 -186 186z" glyph-name="Odieresis" horiz-adv-x="1560" unicode="Ö"/><glyph d="M698 946l-336 -280l228 -283l-39 -29l-227 281l-336 -283l-21 31l336 283l-227 280l33 29l227 -283l336 283z" glyph-name="multiply" horiz-adv-x="905" unicode="×"/><glyph d="M1294.5 1058q55.5 -116 55.5 -253q0 -63 -13 -131q-35 -184 -156.5 -340t-295.5 -248t-357 -92q-168 0 -309 82l-57 -76h-51l77 100q-102 74 -158.5 191t-56.5 256q0 63 13 127q37 184 157.5 340.5t293.5 249t356 92.5q178 0 311 -88l53 65h49l-67 -86 q100 -73 155.5 -189zM16 549q0 -129 52.5 -236.5t148.5 -177.5l860 1098q-137 80 -293 80q-170 0 -331.5 -86t-276.5 -233.5t-147 -319.5q-13 -64 -13 -125zM870.5 121q161.5 86 275.5 232.5t148 320.5q12 66 13 125q0 127 -52.5 234.5t-144.5 176.5l-862 -1097 q129 -78 289 -78q172 0 333.5 86z" glyph-name="Oslash" horiz-adv-x="1562" unicode="Ø"/><glyph d="M711 1522l-158 190h86l106 -190h-34zM643 24q-98 -38 -201 -38q-102 0 -188 38t-141 111q-82 111 -82 258q0 43 10 101l160 837h43l-162 -837q-10 -51 -10 -93q0 -133 80 -235q51 -68 127 -103t170 -34q94 0 185 34q91 35 169 103q78 66 128 149q50 84 70 179l160 837h41 l-162 -837q-20 -102 -75 -195q-55 -92 -140 -164q-84 -73 -182 -111z" glyph-name="Ugrave" horiz-adv-x="1388" unicode="Ù"/><glyph d="M705 1522l180 192h88l-232 -192h-36zM643 24q-98 -38 -201 -38q-102 0 -188 38t-141 111q-82 111 -82 258q0 43 10 101l160 837h43l-162 -837q-10 -51 -10 -93q0 -133 80 -235q51 -68 127 -103t170 -34q94 0 185 34q91 35 169 103q78 66 128 149q50 84 70 179l160 837h41 l-162 -837q-20 -102 -75 -195q-55 -92 -140 -164q-84 -73 -182 -111z" glyph-name="Uacute" horiz-adv-x="1388" unicode="Ú"/><glyph d="M946 1522h-33l-122 147l-183 -147h-33l183 190h84zM643 24q-98 -38 -201 -38q-102 0 -188 38t-141 111q-82 111 -82 258q0 43 10 101l160 837h43l-162 -837q-10 -51 -10 -93q0 -133 80 -235q51 -68 127 -103t170 -34q94 0 185 34q91 35 169 103q78 66 128 149 q50 84 70 179l160 837h41l-162 -837q-20 -102 -75 -195q-55 -92 -140 -164q-84 -73 -182 -111z" glyph-name="Ucircumflex" horiz-adv-x="1388" unicode="Û"/><glyph d="M525 1598q15 13 34 14q16 0 28 -10q11 -10 11 -25l-2 -10q-2 -18 -18 -32q-16 -13 -35 -13q-16 0 -27 10q-10 10 -10 27v8q4 18 19 31zM897 1598q16 13 33 14q18 0 28 -10t11 -27v-8q-4 -18 -21 -32q-16 -13 -35 -13q-16 0 -26 10t-10 24l2 11q2 18 18 31zM643 24 q-98 -38 -201 -38q-102 0 -188 38t-141 111q-82 111 -82 258q0 43 10 101l160 837h43l-162 -837q-10 -51 -10 -93q0 -133 80 -235q51 -68 127 -103t170 -34q94 0 185 34q91 35 169 103q78 66 128 149q50 84 70 179l160 837h41l-162 -837q-20 -102 -75 -195 q-55 -92 -140 -164q-84 -73 -182 -111z" glyph-name="Udieresis" horiz-adv-x="1388" unicode="Ü"/><glyph d="M713 1522l180 192h88l-231 -192h-37zM555 551l700 780h52l-738 -825l-98 -506h-43l100 506l-419 825h53z" glyph-name="Yacute" horiz-adv-x="1400" unicode="Ý"/><glyph d="M889 577.5q47 -67.5 47 -155.5q0 -27 -6 -57q-18 -92 -87 -176.5t-177.5 -136.5t-239.5 -52h-229l8 43h231q117 0 214.5 46t158.5 120t78 156q6 29 6 53q0 76 -42 134t-103 89q-109 47 -259 47h-157l6 41h98q82 0 160 38t132 102.5t69 140.5q4 16 4 49q0 98 -73 163.5 t-183 65.5q-84 0 -162 -38t-132 -101.5t-69 -138.5l-196 -1010h-43l196 1010q16 88 78 161.5t150 116.5t184 43q129 0 212 -75.5t83 -188.5q0 -29 -6 -57q-18 -90 -85 -167t-159 -120q100 -8 176 -45q70 -33 117 -100.5z" glyph-name="germandbls" horiz-adv-x="1226" unicode="ß"/><glyph d="M754 1522l-158 190h86l106 -190h-34zM745 1348l332 -1348h-45l-98 391h-772l-258 -391h-47zM188 432h738l-203 815z" glyph-name="agrave" unicode="à"/><glyph d="M741 1522l181 192h88l-232 -192h-37zM745 1348l332 -1348h-45l-98 391h-772l-258 -391h-47zM188 432h738l-203 815z" glyph-name="aacute" unicode="á"/><glyph d="M950 1522h-32l-123 147l-183 -147h-32l182 190h84zM745 1348l332 -1348h-45l-98 391h-772l-258 -391h-47zM188 432h738l-203 815z" glyph-name="acircumflex" unicode="â"/><glyph d="M526 1550q-29 -39 -30 -41l-35 17l24 32t51 50q32 27 72 39q25 6 47 6q66 0 129 -49q51 -41 103 -41q10 0 35 4q57 16 88 55t32 41l33 -16q0 -4 -20 -30t-55 -52q-34 -27 -76 -39q-25 -6 -47 -6q-63 0 -125 49q-49 41 -103 41q-25 0 -35 -4q-59 -17 -88 -56zM745 1348 l332 -1348h-45l-98 391h-772l-258 -391h-47zM188 432h738l-203 815z" glyph-name="atilde" unicode="ã"/><glyph d="M554 1598q15 13 34 14q16 0 27 -10t12 -25l-2 -10q-2 -18 -19 -32q-16 -13 -35 -13q-16 0 -26 10t-10 27v8q4 18 19 31zM926 1598q16 13 32 14q18 0 29 -10q10 -10 10 -27v-8q-4 -18 -20 -32q-16 -13 -35 -13q-16 0 -27 10q-10 10 -10 24l2 11q3 18 19 31zM745 1348 l332 -1348h-45l-98 391h-772l-258 -391h-47zM188 432h738l-203 815z" glyph-name="adieresis" unicode="ä"/><glyph d="M892 1567q-54 -45 -120 -45q-57 0 -92 34q-35 35 -35 91q0 20 2 30q12 63 67 110q54 46 120 46q55 0 92 -36t37 -89q0 -10 -5 -31q-12 -65 -66 -110zM893 1763q-27 27 -68 27q-49 0 -87 -33t-48 -80q-2 -8 -2 -22q0 -41 27 -67t67 -25q47 0 87 33q40 34 49 81q2 6 2 19 q0 40 -27 67zM745 1348l332 -1348h-45l-98 391h-772l-258 -391h-47zM188 432h738l-203 815z" glyph-name="aring" unicode="å"/><glyph d="M1825 1331l-8 -43h-828l-117 -600h654l-10 -43h-652l-116 -602h827l-8 -43h-871l88 461h-579l-301 -461h-47l874 1331h1094zM793 504l153 784h-194l-519 -784h560z" glyph-name="ae" horiz-adv-x="2009" unicode="æ"/><glyph d="M832.5 52.5q-150.5 -66.5 -304.5 -66.5q-162 0 -287.5 71.5t-196.5 196.5t-71 281q0 66 13 133q37 184 157.5 340.5t293.5 248t356 91.5q141 0 261 -57.5t195 -164.5l-39 -28q-72 100 -182 155.5t-244 55.5q-170 0 -331.5 -87t-276.5 -233.5t-147 -320.5 q-12 -63 -13 -125q0 -145 65.5 -262t184.5 -184.5t269 -67.5q143 0 285.5 62.5t252.5 172.5l29 -24q-119 -121 -269.5 -187.5zM584 -227q-47 -33 -113 -33q-63 0 -102 33q-33 25 -33 63q0 14 2 21h43q-8 -29 21.5 -52.5t74.5 -23.5t84 22.5t47 53.5q4 31 -25.5 53t-74.5 22 h-21l17 88h43l-10 -47q45 -2 79 -30q41 -33 35 -86q-14 -53 -67 -84z" glyph-name="ccedilla" horiz-adv-x="1413" unicode="ç"/><glyph d="M670 1522l-158 190h86l107 -190h-35zM815 0h-872l258 1331h872l-6 -43h-829l-117 -600h653l-10 -43h-653l-115 -600h829z" glyph-name="egrave" horiz-adv-x="1257" unicode="è"/><glyph d="M666 1522l180 192h88l-232 -192h-36zM815 0h-872l258 1331h872l-6 -43h-829l-117 -600h653l-10 -43h-653l-115 -600h829z" glyph-name="eacute" horiz-adv-x="1257" unicode="é"/><glyph d="M887 1522h-33l-123 147l-182 -147h-33l182 190h84zM815 0h-872l258 1331h872l-6 -43h-829l-117 -600h653l-10 -43h-653l-115 -600h829z" glyph-name="ecircumflex" horiz-adv-x="1257" unicode="ê"/><glyph d="M488 1598q15 13 34 14q16 0 28 -10q11 -10 11 -25l-2 -10q-2 -18 -18 -32q-16 -13 -35 -13q-16 0 -27 10q-10 10 -10 27v8q4 18 19 31zM860 1598q16 13 33 14q18 0 29 -10q10 -10 10 -27v-8q-4 -18 -21 -32q-16 -13 -34 -13q-16 0 -27 10q-10 10 -10 24l2 11q2 18 18 31z M815 0h-872l258 1331h872l-6 -43h-829l-117 -600h653l-10 -43h-653l-115 -600h829z" glyph-name="edieresis" horiz-adv-x="1257" unicode="ë"/><glyph d="M20 0h-43l259 1331h43zM274 1497l-155 195h84l104 -195h-33z" glyph-name="igrave" horiz-adv-x="491" unicode="ì"/><glyph d="M12 0h-43l258 1331h43zM262 1497l182 193h86l-235 -193h-33z" glyph-name="iacute" horiz-adv-x="485" unicode="í"/><glyph d="M14 0h-41l258 1331h41zM475 1497h-37l-121 152l-184 -152h-33l183 193h86z" glyph-name="icircumflex" horiz-adv-x="487" unicode="î"/><glyph d="M35 0h-43l258 1331h43zM105.5 1575q13.5 12 33.5 12q16 0 27.5 -10t11.5 -27v-8q-4 -18 -20.5 -31.5t-34.5 -13.5q-16 0 -26.5 10.5t-10.5 24.5l2 10q4 21 17.5 33zM474 1574q15 13 34 13q18 0 29.5 -10t11.5 -27v-8q-4 -16 -20.5 -30.5t-36.5 -14.5q-14 0 -24.5 11.5 t-10.5 27.5v6q2 19 17 32z" glyph-name="idieresis" horiz-adv-x="532" unicode="ï"/><glyph d="M518 1550q-29 -39 -31 -41l-34 17l24 32t50 50q32 27 73 39q25 6 47 6q66 0 129 -49q51 -41 103 -41q10 0 34 4q57 16 88 55t33 41l33 -16q0 -4 -20 -30t-55 -52q-34 -27 -77 -39q-25 -6 -47 -6q-63 0 -125 49q-49 41 -102 41q-25 0 -35 -4q-59 -17 -88 -56zM944 -25 l-719 1242l-237 -1217h-43l264 1348l719 -1239l235 1222h43z" glyph-name="ntilde" horiz-adv-x="1392" unicode="ñ"/><glyph d="M782 1522l-157 190h86l106 -190h-35zM884 78q-173 -92 -356 -92q-162 0 -287 71q-126 72 -197 197t-71 281q0 66 13 133q37 184 157 341q121 157 294 247q173 91 356 92q160 0 285 -72q126 -72 197 -197t71 -280q0 -63 -13 -131q-35 -184 -155 -341q-121 -157 -294 -249z M1054 1239q-120 68 -272 68q-170 0 -331 -86q-162 -86 -276 -233q-114 -146 -146 -320q-12 -63 -13 -125q0 -145 66 -262t184 -185q119 -68 269 -67q172 0 334 86q163 86 277 232t148 321q12 61 13 120q0 145 -67 265q-66 118 -186 186z" glyph-name="ograve" horiz-adv-x="1560" unicode="ò"/><glyph d="M782 1522l181 192h88l-232 -192h-37zM884 78q-173 -92 -356 -92q-162 0 -287 71q-126 72 -197 197t-71 281q0 66 13 133q37 184 157 341q121 157 294 247q173 91 356 92q160 0 285 -72q126 -72 197 -197t71 -280q0 -63 -13 -131q-35 -184 -155 -341q-121 -157 -294 -249z M1054 1239q-120 68 -272 68q-170 0 -331 -86q-162 -86 -276 -233q-114 -146 -146 -320q-12 -63 -13 -125q0 -145 66 -262t184 -185q119 -68 269 -67q172 0 334 86q163 86 277 232t148 321q12 61 13 120q0 145 -67 265q-66 118 -186 186z" glyph-name="oacute" horiz-adv-x="1560" unicode="ó"/><glyph d="M1004 1522h-33l-123 147l-182 -147h-33l182 190h84zM884 78q-173 -92 -356 -92q-162 0 -287 71q-126 72 -197 197t-71 281q0 66 13 133q37 184 157 341q121 157 294 247q173 91 356 92q160 0 285 -72q126 -72 197 -197t71 -280q0 -63 -13 -131q-35 -184 -155 -341 q-121 -157 -294 -249zM1054 1239q-120 68 -272 68q-170 0 -331 -86q-162 -86 -276 -233q-114 -146 -146 -320q-12 -63 -13 -125q0 -145 66 -262t184 -185q119 -68 269 -67q172 0 334 86q163 86 277 232t148 321q12 61 13 120q0 145 -67 265q-66 118 -186 186z" glyph-name="ocircumflex" horiz-adv-x="1560" unicode="ô"/><glyph d="M559 1550q-29 -39 -31 -41l-34 17l24 32t50 50q32 27 73 39q25 6 47 6q66 0 129 -49q51 -41 103 -41q10 0 34 4q57 16 88 55t33 41l33 -16q0 -4 -21 -30q-20 -26 -54 -52q-34 -27 -77 -39q-25 -6 -47 -6q-63 0 -125 49q-49 41 -102 41q-25 0 -35 -4q-59 -17 -88 -56z M884 78q-173 -92 -356 -92q-162 0 -287 71q-126 72 -197 197t-71 281q0 66 13 133q37 184 157 341q121 157 294 247q173 91 356 92q160 0 285 -72q126 -72 197 -197t71 -280q0 -63 -13 -131q-35 -184 -155 -341q-121 -157 -294 -249zM1054 1239q-120 68 -272 68 q-170 0 -331 -86q-162 -86 -276 -233q-114 -146 -146 -320q-12 -63 -13 -125q0 -145 66 -262t184 -185q119 -68 269 -67q172 0 334 86q163 86 277 232t148 321q12 61 13 120q0 145 -67 265q-66 118 -186 186z" glyph-name="otilde" horiz-adv-x="1560" unicode="õ"/><glyph d="M595 1598q15 13 34 14q16 0 27 -10t12 -25l-2 -10q-2 -18 -19 -32q-16 -13 -35 -13q-16 0 -26 10t-11 27v8q5 18 20 31zM967 1598q16 13 32 14q18 0 29 -10q10 -10 10 -27v-8q-4 -18 -20 -32q-16 -13 -35 -13q-16 0 -27 10q-10 10 -10 24l2 11q3 18 19 31zM884 78 q-173 -92 -356 -92q-162 0 -287 71q-126 72 -197 197t-71 281q0 66 13 133q37 184 157 341q121 157 294 247q173 91 356 92q160 0 285 -72q126 -72 197 -197t71 -280q0 -63 -13 -131q-35 -184 -155 -341q-121 -157 -294 -249zM1054 1239q-120 68 -272 68q-170 0 -331 -86 q-162 -86 -276 -233q-114 -146 -146 -320q-12 -63 -13 -125q0 -145 66 -262t184 -185q119 -68 269 -67q172 0 334 86q163 86 277 232t148 321q12 61 13 120q0 145 -67 265q-66 118 -186 186z" glyph-name="odieresis" horiz-adv-x="1560" unicode="ö"/><glyph d="M1294.5 1058q55.5 -116 55.5 -253q0 -63 -13 -131q-35 -184 -156.5 -340t-295.5 -248t-357 -92q-168 0 -309 82l-57 -76h-51l77 100q-102 74 -158.5 191t-56.5 256q0 63 13 127q37 184 157.5 340.5t293.5 249t356 92.5q178 0 311 -88l53 65h49l-67 -86 q100 -73 155.5 -189zM16 549q0 -129 52.5 -236.5t148.5 -177.5l860 1098q-137 80 -293 80q-170 0 -331.5 -86t-276.5 -233.5t-147 -319.5q-13 -64 -13 -125zM870.5 121q161.5 86 275.5 232.5t148 320.5q12 66 13 125q0 127 -52.5 234.5t-144.5 176.5l-862 -1097 q129 -78 289 -78q172 0 333.5 86z" glyph-name="oslash" horiz-adv-x="1562" unicode="ø"/><glyph d="M711 1522l-158 190h86l106 -190h-34zM643 24q-98 -38 -201 -38q-102 0 -188 38t-141 111q-82 111 -82 258q0 43 10 101l160 837h43l-162 -837q-10 -51 -10 -93q0 -133 80 -235q51 -68 127 -103t170 -34q94 0 185 34q91 35 169 103q78 66 128 149q50 84 70 179l160 837h41 l-162 -837q-20 -102 -75 -195q-55 -92 -140 -164q-84 -73 -182 -111z" glyph-name="ugrave" horiz-adv-x="1388" unicode="ù"/><glyph d="M705 1522l180 192h88l-232 -192h-36zM643 24q-98 -38 -201 -38q-102 0 -188 38t-141 111q-82 111 -82 258q0 43 10 101l160 837h43l-162 -837q-10 -51 -10 -93q0 -133 80 -235q51 -68 127 -103t170 -34q94 0 185 34q91 35 169 103q78 66 128 149q50 84 70 179l160 837h41 l-162 -837q-20 -102 -75 -195q-55 -92 -140 -164q-84 -73 -182 -111z" glyph-name="uacute" horiz-adv-x="1388" unicode="ú"/><glyph d="M946 1522h-33l-122 147l-183 -147h-33l183 190h84zM643 24q-98 -38 -201 -38q-102 0 -188 38t-141 111q-82 111 -82 258q0 43 10 101l160 837h43l-162 -837q-10 -51 -10 -93q0 -133 80 -235q51 -68 127 -103t170 -34q94 0 185 34q91 35 169 103q78 66 128 149 q50 84 70 179l160 837h41l-162 -837q-20 -102 -75 -195q-55 -92 -140 -164q-84 -73 -182 -111z" glyph-name="ucircumflex" horiz-adv-x="1388" unicode="û"/><glyph d="M525 1598q15 13 34 14q16 0 28 -10q11 -10 11 -25l-2 -10q-2 -18 -18 -32q-16 -13 -35 -13q-16 0 -27 10q-10 10 -10 27v8q4 18 19 31zM897 1598q16 13 33 14q18 0 28 -10t11 -27v-8q-4 -18 -21 -32q-16 -13 -35 -13q-16 0 -26 10t-10 24l2 11q2 18 18 31zM643 24 q-98 -38 -201 -38q-102 0 -188 38t-141 111q-82 111 -82 258q0 43 10 101l160 837h43l-162 -837q-10 -51 -10 -93q0 -133 80 -235q51 -68 127 -103t170 -34q94 0 185 34q91 35 169 103q78 66 128 149q50 84 70 179l160 837h41l-162 -837q-20 -102 -75 -195 q-55 -92 -140 -164q-84 -73 -182 -111z" glyph-name="udieresis" horiz-adv-x="1388" unicode="ü"/><glyph d="M713 1522l180 192h88l-231 -192h-37zM555 551l700 780h52l-738 -825l-98 -506h-43l100 506l-419 825h53z" glyph-name="yacute" horiz-adv-x="1400" unicode="ý"/><glyph d="M527 1598q15 13 34 14q16 0 28 -10q11 -10 11 -25l-2 -10q-2 -18 -18 -32q-16 -13 -35 -13q-16 0 -27 10q-10 10 -10 27v8q4 18 19 31zM899 1598q16 13 33 14q18 0 29 -10q10 -10 10 -27v-8q-4 -18 -21 -32q-16 -13 -35 -13q-16 0 -26 10t-10 24l2 11q2 18 18 31z M555 551l700 780h52l-738 -825l-98 -506h-43l100 506l-419 825h53z" glyph-name="ydieresis" horiz-adv-x="1400" unicode="ÿ"/><glyph d="M1333 1288l-116 -602h651l-6 -43h-654l-114 -600h827l-10 -43h-871l54 264q-117 -123 -268.5 -193.5t-309.5 -70.5t-281.5 70.5t-192.5 193.5t-69 275q0 61 13 129q35 180 153.5 332.5t286.5 241.5t348 89q158 0 282 -70.5t193 -193.5l49 264h871l-6 -43h-830zM841.5 123 q153.5 80 266.5 215l127 657q-57 135 -181 216t-288 81q-168 0 -326.5 -85t-269.5 -228t-143 -311q-12 -63 -13 -123q0 -141 65.5 -256t181.5 -180.5t263 -65.5q164 0 317.5 80z" glyph-name="OE" horiz-adv-x="2353" unicode="Œ"/><glyph d="M1333 1288l-116 -602h651l-6 -43h-654l-114 -600h827l-10 -43h-871l54 264q-117 -123 -268.5 -193.5t-309.5 -70.5t-281.5 70.5t-192.5 193.5t-69 275q0 61 13 129q35 180 153.5 332.5t286.5 241.5t348 89q158 0 282 -70.5t193 -193.5l49 264h871l-6 -43h-830zM841.5 123 q153.5 80 266.5 215l127 657q-57 135 -181 216t-288 81q-168 0 -326.5 -85t-269.5 -228t-143 -311q-12 -63 -13 -123q0 -141 65.5 -256t181.5 -180.5t263 -65.5q164 0 317.5 80z" glyph-name="oe" horiz-adv-x="2353" unicode="œ"/><glyph d="M1120 1522h-33l-122 147l-183 -147h-32l182 190h84zM1087 109l617 1222h45l-684 -1356l-178 1106l-611 -1106l-163 1356h45l147 -1222l606 1097z" glyph-name="Wcircumflex" horiz-adv-x="1847" unicode="Ŵ"/><glyph d="M1120 1522h-33l-122 147l-183 -147h-32l182 190h84zM1087 109l617 1222h45l-684 -1356l-178 1106l-611 -1106l-163 1356h45l147 -1222l606 1097z" glyph-name="wcircumflex" horiz-adv-x="1847" unicode="ŵ"/><glyph d="M924 1522h-33l-123 147l-182 -147h-33l182 190h84zM555 551l700 780h52l-738 -825l-98 -506h-43l100 506l-419 825h53z" glyph-name="Ycircumflex" horiz-adv-x="1400" unicode="Ŷ"/><glyph d="M924 1522h-33l-123 147l-182 -147h-33l182 190h84zM555 551l700 780h52l-738 -825l-98 -506h-43l100 506l-419 825h53z" glyph-name="ycircumflex" horiz-adv-x="1400" unicode="ŷ"/><glyph d="M527 1598q15 13 34 14q16 0 28 -10q11 -10 11 -25l-2 -10q-2 -18 -18 -32q-16 -13 -35 -13q-16 0 -27 10q-10 10 -10 27v8q4 18 19 31zM899 1598q16 13 33 14q18 0 29 -10q10 -10 10 -27v-8q-4 -18 -21 -32q-16 -13 -35 -13q-16 0 -26 10t-10 24l2 11q2 18 18 31z M555 551l700 780h52l-738 -825l-98 -506h-43l100 506l-419 825h53z" glyph-name="Ydieresis" horiz-adv-x="1400" unicode="Ÿ"/><glyph d="M-727 1522l-158 190h86l107 -190h-35z" glyph-name="gravecomb" horiz-adv-x="0" unicode="̀"/><glyph d="M-784 1522l180 192h88l-232 -192h-36z" glyph-name="acutecomb" horiz-adv-x="0" unicode="́"/><glyph d="M-532 1522h-33l-123 147l-182 -147h-33l182 190h84z" glyph-name="uni0302" horiz-adv-x="0" unicode="̂"/><glyph d="M-901 1550q-29 -39 -31 -41l-35 17q6 8 24.5 31.5t50.5 50t73 39.5q25 6 47 6q66 0 129 -49q51 -41 102 -41q10 0 35 4q57 16 88 55t33 41l33 -16q0 -4 -20.5 -30t-54.5 -52.5t-77 -38.5q-25 -6 -47 -6q-63 0 -125 49q-49 41 -102 41q-25 0 -35 -4q-59 -17 -88 -56z" glyph-name="tildecomb" horiz-adv-x="0" unicode="̃"/><glyph d="M-679 1598.5q15 13.5 34 13.5q16 0 26.5 -11.5t10.5 -27.5v-6q-2 -18 -19.5 -31.5t-34.5 -13.5q-18 0 -27 10t-9 27v8q4 18 19 31.5z" glyph-name="uni0307" horiz-adv-x="0" unicode="̇"/><glyph d="M-967.5 1598.5q15.5 13.5 33.5 13.5q16 0 27.5 -10.5t11.5 -24.5l-2 -10q-2 -18 -18.5 -31.5t-34.5 -13.5q-16 0 -26.5 10t-10.5 27v8q4 18 19.5 31.5zM-596 1598.5q16 13.5 33 13.5q18 0 28.5 -10.5t10.5 -26.5v-8q-4 -18 -20.5 -31.5t-35.5 -13.5q-16 0 -26 10t-10 24 l2 11q2 18 18 31.5z" glyph-name="uni0308" horiz-adv-x="0" unicode="̈"/><glyph d="M-595 1567q-54 -45 -120 -45q-57 0 -92 34.5t-35 90.5q0 20 2 30q12 63 66.5 109.5t120.5 46.5q55 0 92 -36t37 -89q0 -10 -4 -31q-13 -65 -67 -110zM-594 1763.5q-27 26.5 -68 26.5q-49 0 -86.5 -33t-48.5 -80q-2 -8 -2 -22q0 -41 27 -66.5t67 -25.5q47 0 87 33.5 t49 80.5q2 6 2 19q0 41 -27 67.5z" glyph-name="uni030A" horiz-adv-x="0" unicode="̊"/><glyph d="M-897 -248q-47 -33 -113 -33q-63 0 -102 33q-33 25 -33 64q0 14 2 20h43q-8 -29 21.5 -52.5t74.5 -23.5t84 22.5t48 53.5q4 31 -26 53.5t-75 22.5h-20l16 88h43l-10 -47q45 -2 80 -31q41 -33 35 -86q-15 -53 -68 -84z" glyph-name="uni0327" horiz-adv-x="0" unicode="̧"/><glyph d="M-657 647h-838l10 41h838z" glyph-name="uni0335" horiz-adv-x="0" unicode="̵"/><glyph d="M-1669 0l1044 1331h47l-1042 -1331h-49z" glyph-name="uni0338" horiz-adv-x="0" unicode="̸"/><glyph d="M920 1522l-158 190h86l106 -190h-34zM1087 109l617 1222h45l-684 -1356l-178 1106l-611 -1106l-163 1356h45l147 -1222l606 1097z" glyph-name="Wgrave" horiz-adv-x="1847" unicode="Ẁ"/><glyph d="M920 1522l-158 190h86l106 -190h-34zM1087 109l617 1222h45l-684 -1356l-178 1106l-611 -1106l-163 1356h45l147 -1222l606 1097z" glyph-name="wgrave" horiz-adv-x="1847" unicode="ẁ"/><glyph d="M909 1522l181 192h88l-232 -192h-37zM1087 109l617 1222h45l-684 -1356l-178 1106l-611 -1106l-163 1356h45l147 -1222l606 1097z" glyph-name="Wacute" horiz-adv-x="1847" unicode="Ẃ"/><glyph d="M909 1522l181 192h88l-232 -192h-37zM1087 109l617 1222h45l-684 -1356l-178 1106l-611 -1106l-163 1356h45l147 -1222l606 1097z" glyph-name="wacute" horiz-adv-x="1847" unicode="ẃ"/><glyph d="M720 1598q15 13 34 14q16 0 27 -10t12 -25l-2 -10q-2 -18 -19 -32q-16 -13 -35 -13q-16 0 -26 10t-11 27v8q5 18 20 31zM1092 1598q16 13 32 14q18 0 29 -10q10 -10 10 -27v-8q-4 -18 -20 -32q-16 -13 -35 -13q-16 0 -27 10q-10 10 -10 24l2 11q3 18 19 31zM1087 109 l617 1222h45l-684 -1356l-178 1106l-611 -1106l-163 1356h45l147 -1222l606 1097z" glyph-name="Wdieresis" horiz-adv-x="1847" unicode="Ẅ"/><glyph d="M720 1598q15 13 34 14q16 0 27 -10t12 -25l-2 -10q-2 -18 -19 -32q-16 -13 -35 -13q-16 0 -26 10t-11 27v8q5 18 20 31zM1092 1598q16 13 32 14q18 0 29 -10q10 -10 10 -27v-8q-4 -18 -20 -32q-16 -13 -35 -13q-16 0 -27 10q-10 10 -10 24l2 11q3 18 19 31zM1087 109 l617 1222h45l-684 -1356l-178 1106l-611 -1106l-163 1356h45l147 -1222l606 1097z" glyph-name="wdieresis" horiz-adv-x="1847" unicode="ẅ"/><glyph d="M729 1522l-158 190h86l107 -190h-35zM555 551l700 780h52l-738 -825l-98 -506h-43l100 506l-419 825h53z" glyph-name="Ygrave" horiz-adv-x="1400" unicode="Ỳ"/><glyph d="M729 1522l-158 190h86l107 -190h-35zM555 551l700 780h52l-738 -825l-98 -506h-43l100 506l-419 825h53z" glyph-name="ygrave" horiz-adv-x="1400" unicode="ỳ"/><glyph d="M854 647h-838l11 41h837z" glyph-name="endash" horiz-adv-x="1120" unicode="–"/><glyph d="M139 1157l92 174h95l-123 -174h-64z" glyph-name="quoteleft" horiz-adv-x="460" unicode="‘"/><glyph d="M139 1157l92 174h95l-123 -174h-64z" glyph-name="quoteright" horiz-adv-x="460" unicode="’"/><glyph d="M-137 -88l92 176h94l-123 -176h-63z" glyph-name="quotesinglbase" horiz-adv-x="448" unicode="‚"/><glyph d="M336 1157l94 174h92l-123 -174h-63zM152 1157l92 174h94l-125 -174h-61z" glyph-name="quotedblleft" horiz-adv-x="692" unicode="“"/><glyph d="M336 1157l94 174h92l-123 -174h-63zM152 1157l92 174h94l-125 -174h-61z" glyph-name="quotedblright" horiz-adv-x="692" unicode="”"/><glyph d="M-137 -88l92 176h94l-123 -176h-63zM-137 -88h63l123 176h-94z" glyph-name="quotedblbase" horiz-adv-x="448" unicode="„"/><glyph d="M-62.5 18.5q-15.5 18.5 -11.5 44.5q6 25 27.5 43.5t48.5 18.5q25 0 40 -18.5t9 -43.5q-4 -27 -25.5 -45t-45.5 -18q-27 0 -42.5 18.5zM189.5 18.5q-15.5 18.5 -9.5 44.5q4 25 26.5 43.5t49.5 18.5t42 -18.5t9 -43.5q-4 -27 -26.5 -45t-49.5 -18q-26 0 -41.5 18.5z M446.5 18.5q-16.5 18.5 -10.5 42.5q4 27 26.5 45.5t47.5 18.5q27 0 42 -18.5t11 -45.5q-6 -25 -27.5 -43t-48.5 -18q-24 0 -40.5 18.5z" glyph-name="ellipsis" horiz-adv-x="966" unicode="…"/><glyph d="M119 666l489 -418l-10 -51l-553 469l735 464l-8 -51z" glyph-name="guilsinglleft" horiz-adv-x="976" unicode="‹"/><glyph d="M135 1133l553 -467l-735 -467l12 51l651 416l-491 415z" glyph-name="guilsinglright" horiz-adv-x="974" unicode="›"/><glyph d="M-109 0l1043 1331h49l-1042 -1331h-50z" glyph-name="fraction" horiz-adv-x="1118" unicode="⁄"/><glyph d="M748.5 1262.5q-134.5 -56.5 -243 -156.5t-173.5 -227h614l-6 -43h-629q-37 -92 -49 -154q-12 -80 -12 -147h631l-11 -43h-616q14 -129 84 -231.5t182.5 -160t251.5 -57.5h205l-10 -43h-205q-150 0 -270.5 63.5t-194.5 175t-86 253.5h-260l8 43h250q0 76 14 147 q12 74 47 154h-252l9 43h262q68 139 184.5 248.5t260 171t292.5 61.5h207l-8 -41h-205q-137 0 -271.5 -56.5z" glyph-name="Euro" horiz-adv-x="1409" unicode="€"/><glyph glyph-name="trademark" horiz-adv-x="1419" unicode="™"/><glyph d="M854 647h-838l11 41h837z" glyph-name="minus" horiz-adv-x="1120" unicode="−"/><glyph d="M743 1348l334 -1348h-49l-305 1247l-819 -1247h-47z" glyph-name="glyph203"/><glyph d="M743 1348l334 -1348h-49l-305 1247l-819 -1247h-47z" glyph-name="glyph204"/></font>
</defs>
</svg>
