<?xml version="1.0" standalone="no"?>
<!DOCTYPE svg PUBLIC "-//W3C//DTD SVG 1.1//EN" "http://www.w3.org/Graphics/SVG/1.1/DTD/svg11.dtd">
<svg xmlns="http://www.w3.org/2000/svg"><metadata>This SVG WebFont was generated by YouWorkForThem.
Ellen Luff</metadata><defs><font horiz-adv-x="1423" id="ywftsvg"><font-face ascent="1638" bbox="-1602 -410 2132 1831" cap-height="1331" descent="-410" font-family="" font-stretch="normal" font-weight="400" panose-1="0 0 5 0 0 0 0 0 0 0" underline-position="0" underline-thickness="0" unicode-range="U+0020-2212" units-per-em="2048" x-height="1331"/><missing-glyph d="M756 1434v-1844h-584v1844h584zM614 176h-307v-209h307v209zM553 117v-88h-184v88h184zM614 496h-184v-103h62v41h61v-86h-184v148h-62v-209h307v209zM614 721h-61v-123h-246v-61h307v184zM614 831h-307v-61h123v-68h-123v-61h185v129h122v61zM430 1010v-66h-61v66h61z M492 1073h-185v-192h307v63h-122v129zM614 1311h-305v-62h121v-67h-123v-62h307v62h-122v67h122v62zM614 -74h-307v-61h129l-129 -86v-62h307v62h-188l129 86h59v61z" horiz-adv-x="921"/><glyph d="M756 1434v-1844h-584v1844h584zM614 176h-307v-209h307v209zM553 117v-88h-184v88h184zM614 496h-184v-103h62v41h61v-86h-184v148h-62v-209h307v209zM614 721h-61v-123h-246v-61h307v184zM614 831h-307v-61h123v-68h-123v-61h185v129h122v61zM430 1010v-66h-61v66h61z M492 1073h-185v-192h307v63h-122v129zM614 1311h-305v-62h121v-67h-123v-62h307v62h-122v67h122v62zM614 -74h-307v-61h129l-129 -86v-62h307v62h-188l129 86h59v61z" glyph-name=".notdef" horiz-adv-x="921"/><glyph glyph-name="glyph1" horiz-adv-x="0"/><glyph glyph-name="glyph2" horiz-adv-x="682"/><glyph glyph-name="space" horiz-adv-x="679" unicode=" "/><glyph d="M330 1331l-19 -92l-200 -973h-72l176 973l18 92h97zM-2 121.5q25 21.5 51 21.5q29 0 46.5 -21.5t10.5 -49.5q-4 -29 -29.5 -50.5t-53.5 -21.5q-29 0 -45.5 21.5t-12.5 50.5q8 28 33 49.5z" glyph-name="exclam" horiz-adv-x="526" unicode="!"/><glyph d="M360 1135l109 196h104l-139 -196h-74zM150 1135l108 196h104l-139 -196h-73z" glyph-name="quotedbl" horiz-adv-x="724" unicode="&quot;"/><glyph d="M1489 924h-318l-180 -518h320l-31 -91h-319l-107 -315h-94l106 315h-522l-108 -315h-93l109 315h-318l31 91h318l178 518h-318l31 92h318l110 315h92l-108 -315h524l107 315h92l-107 -315h318zM899 406l176 518h-522l-176 -518h522z" glyph-name="numbersign" horiz-adv-x="1675" unicode="#"/><glyph d="M879 502q20 -55 20 -105q0 -78 -39 -153q-63 -131 -207 -201q-98 -47 -231 -55l-41 -211h-92l41 217q-231 18 -377 186l76 68q147 -166 391 -166q88 0 194.5 38t161.5 150q29 61 29 109q0 68 -46 120t-132 83l-267 80q-154 53 -206 172q-18 47 -19 100q0 76 37 156 q33 63 85 114t120 84q102 47 215 55l43 218h94l-43 -220q240 -18 391 -188l-76 -68q-145 164 -391 164q-90 0 -194.5 -37.5t-159.5 -150.5q-29 -61 -29 -109q0 -68 45 -120t131 -80l267 -82q154 -53 209 -168z" glyph-name="dollar" horiz-adv-x="1253" unicode="$"/><glyph d="M1034 75q-88 -75 -194 -75q-92 0 -150.5 59.5t-58.5 147.5q0 33 4 49q20 106 109.5 181t195.5 75q92 0 150.5 -57.5t58.5 -147.5q0 -23 -6 -51q-21 -106 -109 -181zM1017 382q-38 38 -95 38q-66 0 -123.5 -48t-69.5 -116q-4 -20 -4 -33q0 -55 38 -93t95 -38q66 0 122 48 t71 116q4 20 4 33q0 55 -38 93zM527 899q-89 -76 -193 -76q-92 0 -150.5 59.5t-58.5 147.5q0 33 4 49q20 106 109.5 181t195.5 75q92 0 150.5 -58t58.5 -147q0 -23 -6 -51q-21 -104 -110 -180zM510 1206q-37 37 -94 37q-68 0 -125.5 -48t-67.5 -116q-4 -20 -4 -32 q0 -55 38 -92t95 -37q66 0 122 47t71 114q2 10 2 31q0 59 -37 96zM61 0l1041 1331h106l-1040 -1331h-107z" glyph-name="percent" horiz-adv-x="1492" unicode="%"/><glyph d="M1155 420l-119 -84l-53 65l119 84zM1016 0h-129l-121 147q-106 -72 -195.5 -116.5t-177.5 -44.5q-109 0 -192.5 38.5t-130.5 107.5t-47 153q0 29 6 55q25 123 105.5 199.5t215.5 136.5l-33 39q-82 98 -81 221q0 23 8 72q33 143 151 237q57 45 126 70.5t138 25.5 q70 0 129.5 -24.5t100.5 -71.5q61 -74 61 -174q0 -29 -6 -63q-18 -98 -123 -191q-47 -43 -102 -76l-57 68q82 45 131 97t57 102q6 25 6 49q0 68 -43 121q-63 70 -170 69q-106 0 -199 -69q-82 -63 -108 -170q-4 -33 -4 -47q0 -53 18.5 -98.5t40.5 -71.5zM550 117 q75 37 163 96l-307 393q-131 -55 -198 -112.5t-85 -153.5q-4 -25 -4 -39q0 -96 82 -158.5t211 -62.5q63 0 138 37z" glyph-name="ampersand" horiz-adv-x="1495" unicode="&amp;"/><glyph d="M139 1135l107 196h106l-141 -196h-72z" glyph-name="quotesingle" horiz-adv-x="471" unicode="'"/><glyph d="M311 86l-18 -94q-135 18 -223 117q-82 94 -82 210q0 31 6 62l59 313l49 254q16 74 63.5 144.5t123.5 128.5q57 47 126.5 77.5t139.5 40.5l-16 -96q-106 -16 -201 -90q-55 -45 -94 -99.5t-49 -105.5l-50 -254l-59 -313q-4 -25 -4 -41q0 -88 65 -164q62 -70 164 -90z" glyph-name="parenleft" horiz-adv-x="694" unicode="("/><glyph d="M-66 86q106 18 199 90q57 45 94 98.5t47 106.5l60 313l49 254q4 29 4 43q0 92 -63 162q-68 76 -162 90l18 96q131 -23 221 -118q82 -98 82 -211q0 -31 -6 -62q-14 -82 -51 -260l-59 -307q-14 -74 -62.5 -143.5t-120.5 -128.5q-125 -96 -268 -117z" glyph-name="parenright" horiz-adv-x="692" unicode=")"/><glyph d="M174 608l-63 54l268 290l-322 113l47 88l320 -113l70 361h94l-74 -361l367 113l10 -88l-363 -113l154 -290l-86 -54l-154 291z" glyph-name="asterisk" horiz-adv-x="1015" unicode="*"/><glyph d="M860 713l-18 -95h-355l-67 -352h-92l67 352h-356l18 95h357l69 356h92l-69 -356h354z" glyph-name="plus" horiz-adv-x="1120" unicode="+"/><glyph d="M-133 -100l104 198h107l-139 -198h-72z" glyph-name="comma" horiz-adv-x="458" unicode=","/><glyph d="M842 618h-803l18 95h803z" glyph-name="hyphen" horiz-adv-x="1120" unicode="-"/><glyph d="M-102.5 20.5q-16.5 20.5 -10.5 49.5q6 31 31 52t53 21q29 0 46.5 -22.5t11.5 -50.5q-4 -27 -31 -48.5t-55 -21.5q-29 0 -45.5 20.5z" glyph-name="period" horiz-adv-x="370" unicode="."/><glyph d="M-104 0l1042 1331h109l-1045 -1331h-106z" glyph-name="slash" horiz-adv-x="1163" unicode="/"/><glyph d="M540 18.5q-85 -32.5 -167 -32.5q-80 0 -154 32.5t-129 90.5q-80 92 -80 208q0 33 6 64l109 567q14 72 62.5 142.5t121.5 130.5q72 57 158 89.5t168 32.5t155.5 -31.5t127.5 -90.5q82 -94 81 -211q0 -31 -6 -62l-108 -569q-16 -74 -64.5 -144.5t-122.5 -125.5 q-73 -58 -158 -90.5zM740.5 1223.5q-58.5 25.5 -124.5 25.5q-63 0 -130.5 -24.5t-127.5 -71.5q-57 -45 -94 -98.5t-47 -106.5l-74 -393q-16 -76 -34 -174q-4 -29 -5 -41q0 -94 64 -164q90 -96 223 -96q66 0 133.5 25.5t124.5 70.5q55 45 93 98.5t51 104.5q14 86 108 569 q4 25 4 39q0 90 -65 166q-41 45 -99.5 70.5z" glyph-name="zero" horiz-adv-x="1210" unicode="0"/><glyph d="M27 907l583 473l-268 -1380h-92l225 1159l-473 -381z" glyph-name="one" horiz-adv-x="770" unicode="1"/><glyph d="M743 92l-18 -92h-805q92 98 319.5 343t411.5 439q121 127 125 256q4 113 -76 168q-57 49 -139 49q-37 0 -67 -8q-131 -29 -256 -151q-23 -18 -42.5 -39t-27.5 -29l-62 53q6 8 27 30t47 46q147 147 312 182q51 10 88 11q109 0 192 -66q102 -86 98 -229q-6 -168 -149 -320 q-383 -406 -598 -643h620z" glyph-name="two" horiz-adv-x="1101" unicode="2"/><glyph d="M848 438q0 -31 -6 -65q-20 -104 -97 -193.5t-188 -141.5t-229 -52q-106 0 -191.5 42t-133.5 115.5t-48 163.5l100 64q-4 -33 -4 -47q0 -104 83 -174t210 -70q96 0 183 39t146.5 106.5t76.5 147.5q4 29 4 45q0 121 -109 225l-86 78l88 76q63 55 93 101t42 108q4 29 4 45 q0 84 -60 140t-155 56q-106 0 -195 -70.5t-110 -170.5h-94q18 92 80.5 168.5t153 121.5t184.5 45q127 0 210 -78.5t83 -195.5q0 -31 -6 -61q-16 -86 -57.5 -146.5t-119.5 -126.5l17 -16q131 -125 131 -279z" glyph-name="three" horiz-adv-x="1146" unicode="3"/><glyph d="M121 381h946l-18 -92h-326l-55 -289h-95l58 289h-701l893 1042h103l-189 -973h-92l158 824z" glyph-name="four" horiz-adv-x="1312" unicode="4"/><glyph d="M594 39q-113 -53 -234 -53q-106 0 -194 40t-137 109.5t-49 151.5q0 16 4 49h96q-4 -25 -4 -35q0 -78 65 -137q41 -41 102.5 -62.5t135.5 -21.5q96 0 184 41t148.5 110.5t74.5 153.5q4 33 5 45q0 92 -62 158q-84 88 -235 88l-394 -2l176 657h779l-19 -92h-692l-125 -469 l293 2q106 0 192.5 -41t134.5 -114.5t48 -163.5q0 -33 -6 -68q-20 -109 -97 -201t-190 -145z" glyph-name="five" horiz-adv-x="1148" unicode="5"/><glyph d="M608 1331h105q-72 -98 -137.5 -190t-122.5 -172l-174 -246q94 41 210 41q106 0 192.5 -42t133.5 -114.5t47 -163.5q0 -33 -6 -67q-20 -106 -97 -195.5t-188.5 -142.5t-232.5 -53q-109 0 -195 43t-134 117.5t-48 166.5q0 33 6 64q18 82 80 170zM277.5 633 q-87.5 -39 -143.5 -106.5t-73 -149.5q-4 -16 -4 -49q0 -104 85 -176t214 -72q94 0 182.5 40t149 108.5t74.5 148.5q4 16 4 51q0 104 -83 174t-212 70q-106 0 -193.5 -39z" glyph-name="six" horiz-adv-x="1114" unicode="6"/><glyph d="M1096 1331l-957 -1331h-104l889 1239h-799l18 92h953z" glyph-name="seven" horiz-adv-x="1191" unicode="7"/><glyph d="M806 606q50 -74 50 -166q0 -31 -6 -65q-20 -104 -97 -194.5t-187.5 -142.5t-229.5 -52q-109 0 -194 43t-133 117.5t-48 164.5q0 33 6 64q23 113 111 206t209 140q-53 39 -83 96t-30 127q0 31 6 62q16 92 79 169.5t153 122.5t186 45q127 0 210 -78.5t83 -195.5 q0 -33 -6 -63q-16 -88 -73.5 -163t-141.5 -122q86 -41 136 -115zM268 963q0 -88 60.5 -145.5t156.5 -57.5q106 0 196.5 71.5t111.5 174.5q4 29 4 43q0 86 -61.5 143t-153.5 57q-106 0 -197.5 -71.5t-112.5 -171.5q-4 -29 -4 -43zM536 120q87 40 146 107.5t76 147.5 q4 16 4 47q0 104 -84 175t-211 71q-94 0 -182 -40t-148.5 -107.5t-75.5 -145.5q-4 -16 -4 -49q0 -104 84 -175t213 -71q95 0 182 40z" glyph-name="eight" horiz-adv-x="1132" unicode="8"/><glyph d="M324 0h-105l131 182q205 281 307 428q-106 -43 -208 -43q-106 0 -191.5 42t-133.5 116t-48 166q0 33 6 65q20 106 98 196.5t189.5 143t232.5 52.5q106 0 191.5 -42t133.5 -116t48 -166q0 -33 -6 -68q-20 -92 -72 -159zM650 699q89 40 149.5 109t77.5 148q4 33 4 48 q0 106 -83 178.5t-214 72.5q-94 0 -183.5 -40.5t-150 -109.5t-76.5 -149q-4 -33 -4 -47q0 -106 84 -178t213 -72q94 0 183 40z" glyph-name="nine" horiz-adv-x="1159" unicode="9"/><glyph d="M-29.5 156.5q-17.5 21.5 -11.5 50.5q4 31 28.5 51.5t55.5 20.5t47 -21.5t12 -50.5q-8 -31 -31.5 -51.5t-54.5 -20.5q-28 0 -45.5 21.5zM53.5 585.5q-16.5 20.5 -10.5 51.5q4 29 29.5 50.5t54.5 21.5q31 0 47 -21.5t12 -50.5q-8 -31 -32.5 -51.5t-55.5 -20.5 q-28 0 -44.5 20.5z" glyph-name="colon" horiz-adv-x="460" unicode=":"/><glyph d="M65.5 404.5q-16.5 21.5 -10.5 50.5q4 29 30 50t56 21q29 0 45.5 -21.5t10.5 -49.5q-4 -29 -30 -50.5t-54 -21.5q-31 0 -47.5 21.5zM-100 -100l106 196h105l-138 -196h-73z" glyph-name="semicolon" horiz-adv-x="509" unicode=";"/><glyph d="M207 668l432 -367l-23 -115l-569 482l756 477l-23 -115z" glyph-name="less" horiz-adv-x="980" unicode="&lt;"/><glyph d="M795 377h-803l16 92h805zM889 862h-803l18 92h803z" glyph-name="equal" horiz-adv-x="1120" unicode="="/><glyph d="M121 1034l20 115l570 -481l-756 -480l22 115l574 365z" glyph-name="greater" horiz-adv-x="980" unicode=">"/><glyph d="M304.5 108.5q25.5 20.5 55.5 20.5q29 0 45.5 -20.5t12.5 -49.5q-4 -31 -30 -52t-54 -21q-31 0 -47.5 21.5t-12.5 51.5q5 29 30.5 49.5zM434 324l-14 -70h-82l14 70q16 109 84 184q39 49 125 104l62 43q102 72 164.5 137.5t80.5 163.5q4 16 4 50q0 104 -82.5 173.5 t-211.5 69.5q-94 0 -181.5 -39t-147 -106.5t-75.5 -147.5h-92q16 80 63.5 151t122.5 126q70 53 155 81.5t173 28.5t163 -28.5t126 -81.5q84 -94 84 -213q0 -29 -6 -64q-25 -127 -103 -209.5t-194 -162.5l-62 -43q-61 -43 -86.5 -64.5t-49.5 -58.5t-34 -94z" glyph-name="question" horiz-adv-x="1198" unicode="?"/><glyph d="M1546 819q0 -80 -14 -151q-27 -143 -148 -244q-53 -43 -115.5 -65.5t-123.5 -22.5q-84 0 -146.5 46t-89.5 124q-39 -37 -90 -58.5t-102 -21.5q-86 0 -142.5 56.5t-56.5 142.5q0 16 4 45q20 98 104.5 168.5t182.5 70.5q78 0 135 -47l6 37h94l-49 -262q-6 -84 38 -146.5 t130 -62.5q43 0 87 16.5t81 47.5q90 72 107 176q14 63 14 135q0 205 -123 346q-76 94 -188.5 144t-247.5 50q-182 0 -356.5 -91t-296 -246.5t-156.5 -337.5q-12 -68 -12 -129q0 -156 71.5 -282t198.5 -197.5t289 -71.5q113 0 225.5 36.5t210.5 102.5h139 q-127 -109 -281.5 -170t-312.5 -61q-184 0 -328.5 81.5t-225.5 224t-81 318.5q0 76 15 148q41 209 179 385t334.5 279.5t405.5 103.5q154 0 282 -56.5t216 -162.5q137 -169 137 -398zM848 562q53 44 63 106q2 10 2 28q0 53 -33.5 87t-86.5 34q-61 0 -114.5 -43t-66.5 -106 q-2 -10 -2 -29q0 -51 35 -86t88 -35q62 0 115 44z" glyph-name="at" horiz-adv-x="1744" unicode="@"/><glyph d="M188 338l-225 -338h-102l891 1348l327 -1348h-98l-84 338h-709zM702 1120l-452 -690h622z" glyph-name="A" unicode="A"/><glyph d="M908 596q48 -70 48 -158q0 -29 -6 -63q-14 -72 -59 -139.5t-113 -122.5q-74 -53 -162 -83t-180 -30h-491l262 1331h381q184 0 276 -104q68 -70 68 -176q0 -29 -6 -60q-16 -82 -67.5 -149.5t-115.5 -104.5l-20 -12q45 -14 63 -25q74 -34 122 -104zM186 752h283q57 0 96 6 t78 20q57 23 115.5 78t75.5 135q4 29 4 41q0 88 -70 146.5t-199 58.5h-288zM646 133q87 41 142.5 105.5t69.5 136.5q4 29 4 45q0 66 -35.5 117t-91.5 77q-90 43 -241 43h-326l-109 -565h396q104 0 191 41z" glyph-name="B" horiz-adv-x="1232" unicode="B"/><glyph d="M835.5 52.5q-149.5 -66.5 -303.5 -66.5q-160 0 -285.5 71.5t-196 197.5t-70.5 280q0 66 12 133q35 184 156.5 339.5t294.5 248t356 92.5q141 0 260 -58.5t192 -165.5l-80 -63q-63 92 -165.5 143t-225.5 51q-158 0 -306 -78.5t-253.5 -214t-136.5 -294.5q-12 -57 -12 -115 q0 -133 61.5 -241.5t171 -170t246.5 -61.5q133 0 262 56.5t234 160.5l61 -57q-123 -121 -272.5 -187.5z" glyph-name="C" horiz-adv-x="1402" unicode="C"/><glyph d="M601 52q-130 -52 -271 -52h-385l260 1331h383q141 0 251.5 -52t182.5 -149q94 -135 94 -319q0 -74 -14 -143q-25 -133 -92.5 -252t-169.5 -213q-109 -99 -239 -151zM279 1237l-222 -1145h289q248 0 438 174q88 78 146.5 181.5t79.5 220.5q12 61 12 120q0 162 -82 279 q-59 84 -153.5 127t-217.5 43h-290z" glyph-name="D" horiz-adv-x="1327" unicode="D"/><glyph d="M807 0h-862l260 1331h862l-18 -94h-770l-103 -524h600l-18 -95h-598l-103 -522h768z" glyph-name="E" horiz-adv-x="1232" unicode="E"/><glyph d="M39 0h-94l260 1331h862l-18 -94h-770l-103 -524h602l-18 -97h-600z" glyph-name="F" horiz-adv-x="1214" unicode="F"/><glyph d="M1143 662l-129 -662h-482q-160 0 -284.5 70.5t-194 194.5t-69.5 278q0 63 12 131q35 182 154.5 336.5t291.5 246t355 91.5q139 0 255.5 -57.5t190.5 -160.5l-82 -63q-63 88 -164.5 136t-220.5 48q-156 0 -303 -77.5t-250.5 -210t-134.5 -289.5q-12 -57 -12 -113 q0 -131 60.5 -238.5t169 -169t245.5 -61.5h387l92 477h-438l18 93h533z" glyph-name="G" horiz-adv-x="1452" unicode="G"/><glyph d="M827 0l121 618h-784l-121 -618h-94l137 713l121 618h94l-119 -618h785l120 618h93l-129 -663l-129 -668h-95z" glyph-name="H" horiz-adv-x="1349" unicode="H"/><glyph d="M63 0h-92l258 1331h93z" glyph-name="I" horiz-adv-x="514" unicode="I"/><glyph d="M454.5 29q-102.5 -43 -208.5 -43q-137 0 -236.5 76.5t-138.5 211.5l90 41q35 -113 113 -174t190 -61q176 0 318 135q74 74 126 179.5t76 234.5l138 702h92l-135 -702q-59 -299 -240 -475q-82 -82 -184.5 -125z" glyph-name="J" horiz-adv-x="1171" unicode="J"/><glyph d="M975 0h-121l-367 567l-546 -590l264 1354h92l-207 -1067l983 1067h115l-633 -684z" glyph-name="K" horiz-adv-x="1329" unicode="K"/><glyph d="M784 0h-839l260 1331h92l-240 -1239h746z" glyph-name="L" horiz-adv-x="1189" unicode="L"/><glyph d="M1321 0h-94l205 1053l-754 -842l-432 844l-205 -1055h-92l262 1348l500 -975l872 975z" glyph-name="M" horiz-adv-x="1748" unicode="M"/><glyph d="M956 -23l-704 1104l-211 -1081h-92l262 1348l707 -1102l210 1085h93z" glyph-name="N" horiz-adv-x="1388" unicode="N"/><glyph d="M888 77q-173 -91 -356 -91q-160 0 -285.5 71.5t-196 196.5t-70.5 281q0 63 12 131q35 184 155.5 340.5t293.5 248t356 91.5q162 0 287.5 -72t196.5 -198t71 -281q0 -61 -13 -129q-37 -184 -157.5 -341t-293.5 -248zM1025 1189.5q-110 61.5 -247 61.5q-158 0 -306 -78.5 t-252.5 -213t-135.5 -293.5q-12 -57 -12 -113q0 -133 61.5 -241.5t171 -170t246.5 -61.5q158 0 306.5 79t252.5 213t135 294q12 59 12 112q0 133 -61 241.5t-171 170z" glyph-name="O" horiz-adv-x="1550" unicode="O"/><glyph d="M41 0h-92l256 1331h475q106 0 189 -41t129 -112.5t46 -159.5q0 -29 -6 -64q-20 -100 -95 -187t-183.5 -138t-224.5 -51h-381zM279 1237l-107 -563h381q92 0 176 38t142.5 102.5t74.5 139.5q4 29 4 43q0 102 -82 171t-206 69h-383z" glyph-name="P" horiz-adv-x="1218" unicode="P"/><glyph d="M1237 404.5q-76 -123.5 -186 -218.5l141 -186h-125l-98 125q-213 -139 -437 -139q-160 0 -285.5 71.5t-196 196.5t-70.5 281q0 63 12 131q35 184 155.5 339.5t293.5 248t356 92.5q162 0 287.5 -72t196.5 -198t71 -281q0 -61 -13 -129q-26 -138 -102 -261.5zM920 193 l-316 432l78 63l319 -434q92 82 157 188.5t87 223.5q12 59 12 114q0 133 -61 240.5t-169.5 169t-248.5 61.5q-158 0 -306 -78.5t-252.5 -213t-135.5 -293.5q-12 -57 -12 -113q0 -133 61.5 -241.5t171 -170t246.5 -61.5q191 0 369 113z" glyph-name="Q" horiz-adv-x="1562" unicode="Q"/><glyph d="M733 0l-422 672h164q145 0 254 39q74 33 137.5 99.5t79.5 145.5q4 29 4 43q0 100 -79.5 170t-219.5 70h-372l-240 -1239h-94l260 1331h465q94 0 171 -29.5t126 -84.5q78 -88 77 -201q0 -29 -6 -60q-23 -111 -106.5 -200.5t-181.5 -128.5q-70 -29 -132.5 -36t-130.5 -7 l369 -584h-123z" glyph-name="R" horiz-adv-x="1265" unicode="R"/><glyph d="M898 537.5q38 -62.5 38 -134.5q0 -35 -4 -53q-16 -76 -66.5 -144.5t-130.5 -119.5q-78 -49 -168 -75.5t-184 -26.5q-92 0 -174 26.5t-141 75.5q-96 84 -97 211l97 49q-2 -10 -2 -33q0 -90 75 -151q45 -41 113 -62.5t147 -21.5q166 0 293 84q123 80 146 188q4 25 4 37 q0 53 -30 98t-85 78q-59 35 -229 55q-14 2 -66.5 10.5t-100.5 22t-79 29.5q-78 41 -119 106.5t-41 145.5q0 35 4 53q16 76 66.5 142.5t130.5 117.5q78 49 169 76t185 27q188 0 314 -103q98 -86 98 -209l-96 -49q2 8 2 27q0 92 -78 157q-47 41 -113.5 62.5t-144.5 21.5 t-155 -21.5t-140 -62.5q-123 -80 -146 -186q-2 -10 -2 -31q0 -57 34 -110t89 -82q41 -20 91.5 -29.5t127.5 -19.5q14 -2 69.5 -10.5t107 -22.5t84.5 -35q69 -45 107 -107.5z" glyph-name="S" horiz-adv-x="1263" unicode="S"/><glyph d="M1278 1331l-18 -94h-527l-241 -1237h-93l240 1237h-528l18 94h1149z" glyph-name="T" horiz-adv-x="1370" unicode="T"/><glyph d="M656.5 26q-101.5 -40 -205.5 -40q-100 0 -185.5 40t-142.5 113q-88 106 -88 260q0 45 10 103l162 829h92l-160 -829q-10 -51 -10 -88q0 -119 70 -211q104 -123 270 -123q84 0 166 31.5t151 91.5q70 57 117 135t64 164l161 829h93l-162 -829q-20 -104 -76.5 -197.5 t-140.5 -165.5q-84 -73 -185.5 -113z" glyph-name="U" horiz-adv-x="1390" unicode="U"/><glyph d="M502 207l721 1124h102l-868 -1354l-344 1354h102z" glyph-name="V" horiz-adv-x="1409" unicode="V"/><glyph d="M1090 264l536 1067h98l-684 -1354l-184 992l-577 -992l-158 1354h96l125 -1071l563 967z" glyph-name="W" horiz-adv-x="1808" unicode="W"/><glyph d="M1192 1331l-604 -665l344 -666h-111l-307 588l-530 -588h-111l604 666l-346 665h113l303 -588l532 588h113z" glyph-name="X" horiz-adv-x="1286" unicode="X"/><glyph d="M604 561l674 770h111l-758 -870l-90 -461h-95l93 461l-424 870h112z" glyph-name="Y" horiz-adv-x="1468" unicode="Y"/><glyph d="M823 0h-846l885 1237h-692l18 94h846l-884 -1239h692z" glyph-name="Z" horiz-adv-x="1222" unicode="Z"/><glyph d="M252 0h-334l258 1331h334l-18 -94h-240l-223 -1141h241z" glyph-name="bracketleft" horiz-adv-x="651" unicode="["/><glyph d="M260 1331l526 -1331h-108l-524 1331h106z" glyph-name="backslash" horiz-adv-x="1163" unicode="\"/><glyph d="M254 0h-336l19 96h243l221 1141h-241l16 94h336z" glyph-name="bracketright" horiz-adv-x="653" unicode="]"/><glyph d="M150 846l-54 65l553 465l375 -463l-78 -65l-321 397z" glyph-name="asciicircum" horiz-adv-x="1245" unicode="^"/><glyph d="M1329 0h-1433l18 92h1434z" glyph-name="underscore" horiz-adv-x="1705" unicode="_"/><glyph d="M188 338l-225 -338h-102l891 1348l327 -1348h-98l-84 338h-709zM702 1120l-452 -690h622z" glyph-name="a" unicode="a"/><glyph d="M908 596q48 -70 48 -158q0 -29 -6 -63q-14 -72 -59 -139.5t-113 -122.5q-74 -53 -162 -83t-180 -30h-491l262 1331h381q184 0 276 -104q68 -70 68 -176q0 -29 -6 -60q-16 -82 -67.5 -149.5t-115.5 -104.5l-20 -12q45 -14 63 -25q74 -34 122 -104zM186 752h283q57 0 96 6 t78 20q57 23 115.5 78t75.5 135q4 29 4 41q0 88 -70 146.5t-199 58.5h-288zM646 133q87 41 142.5 105.5t69.5 136.5q4 29 4 45q0 66 -35.5 117t-91.5 77q-90 43 -241 43h-326l-109 -565h396q104 0 191 41z" glyph-name="b" horiz-adv-x="1232" unicode="b"/><glyph d="M835.5 52.5q-149.5 -66.5 -303.5 -66.5q-160 0 -285.5 71.5t-196 197.5t-70.5 280q0 66 12 133q35 184 156.5 339.5t294.5 248t356 92.5q141 0 260 -58.5t192 -165.5l-80 -63q-63 92 -165.5 143t-225.5 51q-158 0 -306 -78.5t-253.5 -214t-136.5 -294.5q-12 -57 -12 -115 q0 -133 61.5 -241.5t171 -170t246.5 -61.5q133 0 262 56.5t234 160.5l61 -57q-123 -121 -272.5 -187.5z" glyph-name="c" horiz-adv-x="1402" unicode="c"/><glyph d="M601 52q-130 -52 -271 -52h-385l260 1331h383q141 0 251.5 -52t182.5 -149q94 -135 94 -319q0 -74 -14 -143q-25 -133 -92.5 -252t-169.5 -213q-109 -99 -239 -151zM279 1237l-222 -1145h289q248 0 438 174q88 78 146.5 181.5t79.5 220.5q12 61 12 120q0 162 -82 279 q-59 84 -153.5 127t-217.5 43h-290z" glyph-name="d" horiz-adv-x="1327" unicode="d"/><glyph d="M807 0h-862l260 1331h862l-18 -94h-770l-103 -524h600l-18 -95h-598l-103 -522h768z" glyph-name="e" horiz-adv-x="1232" unicode="e"/><glyph d="M39 0h-94l260 1331h862l-18 -94h-770l-103 -524h602l-18 -97h-600z" glyph-name="f" horiz-adv-x="1214" unicode="f"/><glyph d="M1143 662l-129 -662h-482q-160 0 -284.5 70.5t-194 194.5t-69.5 278q0 63 12 131q35 182 154.5 336.5t291.5 246t355 91.5q139 0 255.5 -57.5t190.5 -160.5l-82 -63q-63 88 -164.5 136t-220.5 48q-156 0 -303 -77.5t-250.5 -210t-134.5 -289.5q-12 -57 -12 -113 q0 -131 60.5 -238.5t169 -169t245.5 -61.5h387l92 477h-438l18 93h533z" glyph-name="g" horiz-adv-x="1452" unicode="g"/><glyph d="M827 0l121 618h-784l-121 -618h-94l137 713l121 618h94l-119 -618h785l120 618h93l-129 -663l-129 -668h-95z" glyph-name="h" horiz-adv-x="1349" unicode="h"/><glyph d="M63 0h-92l258 1331h93z" glyph-name="i" horiz-adv-x="514" unicode="i"/><glyph d="M454.5 29q-102.5 -43 -208.5 -43q-137 0 -236.5 76.5t-138.5 211.5l90 41q35 -113 113 -174t190 -61q176 0 318 135q74 74 126 179.5t76 234.5l138 702h92l-135 -702q-59 -299 -240 -475q-82 -82 -184.5 -125z" glyph-name="j" horiz-adv-x="1171" unicode="j"/><glyph d="M975 0h-121l-367 567l-546 -590l264 1354h92l-207 -1067l983 1067h115l-633 -684z" glyph-name="k" horiz-adv-x="1329" unicode="k"/><glyph d="M784 0h-839l260 1331h92l-240 -1239h746z" glyph-name="l" horiz-adv-x="1189" unicode="l"/><glyph d="M1321 0h-94l205 1053l-754 -842l-432 844l-205 -1055h-92l262 1348l500 -975l872 975z" glyph-name="m" horiz-adv-x="1748" unicode="m"/><glyph d="M956 -23l-704 1104l-211 -1081h-92l262 1348l707 -1102l210 1085h93z" glyph-name="n" horiz-adv-x="1388" unicode="n"/><glyph d="M888 77q-173 -91 -356 -91q-160 0 -285.5 71.5t-196 196.5t-70.5 281q0 63 12 131q35 184 155.5 340.5t293.5 248t356 91.5q162 0 287.5 -72t196.5 -198t71 -281q0 -61 -13 -129q-37 -184 -157.5 -341t-293.5 -248zM1025 1189.5q-110 61.5 -247 61.5q-158 0 -306 -78.5 t-252.5 -213t-135.5 -293.5q-12 -57 -12 -113q0 -133 61.5 -241.5t171 -170t246.5 -61.5q158 0 306.5 79t252.5 213t135 294q12 59 12 112q0 133 -61 241.5t-171 170z" glyph-name="o" horiz-adv-x="1550" unicode="o"/><glyph d="M41 0h-92l256 1331h475q106 0 189 -41t129 -112.5t46 -159.5q0 -29 -6 -64q-20 -100 -95 -187t-183.5 -138t-224.5 -51h-381zM279 1237l-107 -563h381q92 0 176 38t142.5 102.5t74.5 139.5q4 29 4 43q0 102 -82 171t-206 69h-383z" glyph-name="p" horiz-adv-x="1218" unicode="p"/><glyph d="M1237 404.5q-76 -123.5 -186 -218.5l141 -186h-125l-98 125q-213 -139 -437 -139q-160 0 -285.5 71.5t-196 196.5t-70.5 281q0 63 12 131q35 184 155.5 339.5t293.5 248t356 92.5q162 0 287.5 -72t196.5 -198t71 -281q0 -61 -13 -129q-26 -138 -102 -261.5zM920 193 l-316 432l78 63l319 -434q92 82 157 188.5t87 223.5q12 59 12 114q0 133 -61 240.5t-169.5 169t-248.5 61.5q-158 0 -306 -78.5t-252.5 -213t-135.5 -293.5q-12 -57 -12 -113q0 -133 61.5 -241.5t171 -170t246.5 -61.5q191 0 369 113z" glyph-name="q" horiz-adv-x="1562" unicode="q"/><glyph d="M733 0l-422 672h164q145 0 254 39q74 33 137.5 99.5t79.5 145.5q4 29 4 43q0 100 -79.5 170t-219.5 70h-372l-240 -1239h-94l260 1331h465q94 0 171 -29.5t126 -84.5q78 -88 77 -201q0 -29 -6 -60q-23 -111 -106.5 -200.5t-181.5 -128.5q-70 -29 -132.5 -36t-130.5 -7 l369 -584h-123z" glyph-name="r" horiz-adv-x="1265" unicode="r"/><glyph d="M898 537.5q38 -62.5 38 -134.5q0 -35 -4 -53q-16 -76 -66.5 -144.5t-130.5 -119.5q-78 -49 -168 -75.5t-184 -26.5q-92 0 -174 26.5t-141 75.5q-96 84 -97 211l97 49q-2 -10 -2 -33q0 -90 75 -151q45 -41 113 -62.5t147 -21.5q166 0 293 84q123 80 146 188q4 25 4 37 q0 53 -30 98t-85 78q-59 35 -229 55q-14 2 -66.5 10.5t-100.5 22t-79 29.5q-78 41 -119 106.5t-41 145.5q0 35 4 53q16 76 66.5 142.5t130.5 117.5q78 49 169 76t185 27q188 0 314 -103q98 -86 98 -209l-96 -49q2 8 2 27q0 92 -78 157q-47 41 -113.5 62.5t-144.5 21.5 t-155 -21.5t-140 -62.5q-123 -80 -146 -186q-2 -10 -2 -31q0 -57 34 -110t89 -82q41 -20 91.5 -29.5t127.5 -19.5q14 -2 69.5 -10.5t107 -22.5t84.5 -35q69 -45 107 -107.5z" glyph-name="s" horiz-adv-x="1263" unicode="s"/><glyph d="M1278 1331l-18 -94h-527l-241 -1237h-93l240 1237h-528l18 94h1149z" glyph-name="t" horiz-adv-x="1370" unicode="t"/><glyph d="M656.5 26q-101.5 -40 -205.5 -40q-100 0 -185.5 40t-142.5 113q-88 106 -88 260q0 45 10 103l162 829h92l-160 -829q-10 -51 -10 -88q0 -119 70 -211q104 -123 270 -123q84 0 166 31.5t151 91.5q70 57 117 135t64 164l161 829h93l-162 -829q-20 -104 -76.5 -197.5 t-140.5 -165.5q-84 -73 -185.5 -113z" glyph-name="u" horiz-adv-x="1390" unicode="u"/><glyph d="M502 207l721 1124h102l-868 -1354l-344 1354h102z" glyph-name="v" horiz-adv-x="1409" unicode="v"/><glyph d="M1090 264l536 1067h98l-684 -1354l-184 992l-577 -992l-158 1354h96l125 -1071l563 967z" glyph-name="w" horiz-adv-x="1808" unicode="w"/><glyph d="M1192 1331l-604 -665l344 -666h-111l-307 588l-530 -588h-111l604 666l-346 665h113l303 -588l532 588h113z" glyph-name="x" horiz-adv-x="1286" unicode="x"/><glyph d="M604 561l674 770h111l-758 -870l-90 -461h-95l93 461l-424 870h112z" glyph-name="y" horiz-adv-x="1468" unicode="y"/><glyph d="M823 0h-846l885 1237h-692l18 94h846l-884 -1239h692z" glyph-name="z" horiz-adv-x="1222" unicode="z"/><glyph d="M166 291q0 -68 47 -123t129 -82l-18 -94q-115 27 -183.5 104.5t-68.5 175.5q0 29 6 56l45 231q-2 8 -32 53t-42 62q18 16 66.5 60t52.5 52l43 226q20 119 126.5 212t252.5 126l-19 -95q-106 -29 -179 -96t-89 -147l-45 -228q-6 -35 -78 -110q20 -39 30.5 -64.5t4.5 -48.5 l-45 -233q-4 -25 -4 -37z" glyph-name="braceleft" horiz-adv-x="724" unicode="{"/><glyph d="M57 0h-94l260 1331h92z" glyph-name="bar" horiz-adv-x="501" unicode="|"/><glyph d="M112.5 181.5q73.5 66.5 90.5 146.5l45 233q8 43 82 113q-47 74 -39 110l45 228q4 25 4 37q0 70 -47 125t-129 81l18 95q115 -29 183.5 -106t68.5 -177q0 -27 -6 -55l-43 -226q0 -8 30.5 -52t43.5 -60q-18 -16 -66.5 -61.5t-52.5 -53.5l-45 -231q-20 -117 -127 -210 t-252 -126l18 94q105 29 178.5 95.5z" glyph-name="braceright" horiz-adv-x="724" unicode="}"/><glyph d="M-23 0l19 92l199 973h71l-178 -973l-18 -92h-93zM310.5 1209.5q-25.5 -21.5 -54.5 -21.5q-31 0 -47 21.5t-12 50.5q6 29 31.5 50t54.5 21t45 -21.5t12 -49.5q-4 -29 -29.5 -50.5z" glyph-name="exclamdown" horiz-adv-x="528" unicode="¡"/><glyph d="M855 62.5q-138 -64.5 -282 -74.5l-41 -211h-92l41 211q-147 10 -262 83.5t-178.5 194.5t-63.5 266q0 55 15 134q35 176 146.5 326.5t272 244.5t332.5 106l43 218h95l-43 -218q129 -8 235.5 -66t175.5 -155l-80 -63q-66 92 -168 142t-223 50q-158 0 -306 -78.5 t-252.5 -213t-135.5 -293.5q-12 -57 -12 -113q0 -133 61.5 -241.5t171 -170t246.5 -61.5q131 0 261 57.5t232 159.5l60 -57q-111 -113 -249 -177.5z" glyph-name="cent" horiz-adv-x="1400" unicode="¢"/><glyph d="M782 92l-18 -92h-821l18 96q125 10 227 94q119 94 142 203q25 133 45 236h-240l19 92h239l45 240q16 72 63.5 143.5t121.5 128.5q72 57 157.5 89t167.5 32h39l-18 -92h-39q-63 0 -130 -26t-128 -73q-57 -45 -94 -97t-48 -105q-2 -10 -24 -132l-21 -108h234l-19 -92h-233 l-45 -236q-14 -72 -62.5 -143.5t-119.5 -126.5q-6 -6 -41 -31h583z" glyph-name="sterling" horiz-adv-x="1140" unicode="£"/><glyph d="M605.5 714.5q-60.5 -26.5 -124.5 -26.5q-98 0 -162.5 64.5t-64.5 160.5q0 33 4 52q14 76 64.5 139t122 101t145.5 38q59 0 107 -23.5t79 -66.5l-82 -61q-41 59 -123 59q-76 0 -139 -54.5t-80 -131.5q-4 -25 -4 -37q0 -63 42 -105.5t110 -42.5q41 0 81 17.5t72 50.5 l62 -57q-49 -50 -109.5 -76.5zM686 578.5q-117 -60.5 -240 -60.5q-109 0 -192.5 47t-130.5 130t-47 188q0 47 8 86q23 123 104.5 227t197.5 165.5t239 61.5q109 0 193.5 -48t131.5 -133t47 -189q0 -45 -8 -84q-23 -123 -104.5 -226.5t-198.5 -164zM792.5 1339 q-77.5 43 -178.5 43q-113 0 -217 -55t-178 -150.5t-96 -207.5q-8 -53 -8 -78q0 -94 44 -171t121.5 -121t176.5 -44q113 0 218 56.5t179 150.5t94 207q8 35 8 80q0 94 -43 170.5t-120.5 119.5z" glyph-name="copyright" horiz-adv-x="1177" unicode="©"/><glyph d="M205 668l434 -367l-23 -115l-569 482l756 477l-21 -113zM590 668l434 -367l-23 -115l-571 482l756 477l-23 -115z" glyph-name="guillemotleft" horiz-adv-x="1363" unicode="«"/><glyph d="M520 976q-90 -75 -196 -75q-92 0 -150.5 57.5t-58.5 147.5q0 25 6 51q20 106 108 181t195 75q92 0 151.5 -59.5t59.5 -149.5q0 -31 -4 -47q-21 -106 -111 -181zM504 1283q-37 38 -98 38q-66 0 -122.5 -48t-70.5 -116q-4 -20 -4 -33q0 -55 38 -93t95 -38q70 0 126 48.5 t71 115.5q2 10 2 31q0 57 -37 95z" glyph-name="degree" horiz-adv-x="782" unicode="°"/><glyph d="M506 1034l22 117l568 -483l-756 -478l22 113l576 367zM121 1036l22 115l568 -481l-756 -480l22 117l574 363z" glyph-name="guillemotright" horiz-adv-x="1366" unicode="»"/><glyph d="M670.5 1221.5q-25.5 -21.5 -56.5 -21.5q-29 0 -45 21.5t-10 50.5q4 29 29.5 50t54.5 21t46.5 -21.5t10.5 -49.5q-4 -29 -29.5 -50.5zM543 1006l12 69h82l-12 -69q-20 -113 -84 -185q-33 -37 -75 -67.5t-50 -36.5l-62 -43q-102 -72 -165.5 -137.5t-82.5 -163.5 q-4 -33 -4 -47q0 -104 83 -175t212 -71q94 0 182.5 39t147.5 106.5t74 147.5h92q-16 -80 -63.5 -150.5t-120.5 -124.5q-147 -113 -330 -112q-86 0 -161 28.5t-128 83.5q-82 88 -82 209q0 33 6 66q25 127 103 210t194 162q12 12 62 46q59 41 85.5 62t50.5 58.5t34 94.5z" glyph-name="questiondown" horiz-adv-x="1198" unicode="¿"/><glyph d="M686 1468l-188 207h168l125 -207h-105zM188 338l-225 -338h-102l891 1348l327 -1348h-98l-84 338h-709zM702 1120l-452 -690h622z" glyph-name="Agrave" unicode="À"/><glyph d="M655 1468l209 207h168l-270 -207h-107zM188 338l-225 -338h-102l891 1348l327 -1348h-98l-84 338h-709zM702 1120l-452 -690h622z" glyph-name="Aacute" unicode="Á"/><glyph d="M977 1468h-105l-120 131l-170 -131h-105l207 207h166zM188 338l-225 -338h-102l891 1348l327 -1348h-98l-84 338h-709zM702 1120l-452 -690h622z" glyph-name="Acircumflex" unicode="Â"/><glyph d="M481 1492q-18 -17 -22 -24l-68 50q4 6 33 33q29 28 73 56t95 35q16 4 47 5q80 0 139 -52q41 -35 92 -34q18 0 29 2q33 6 63 25t49 37q19 17 23 24l70 -50q-4 -2 -58 -55t-149 -69q-16 -4 -45 -5q-76 0 -139 52q-43 35 -92 34q-18 0 -29 -2q-33 -6 -63 -25 q-30 -20 -48 -37zM188 338l-225 -338h-102l891 1348l327 -1348h-98l-84 338h-709zM702 1120l-452 -690h622z" glyph-name="Atilde" unicode="Ã"/><glyph d="M501 1590q26 22 56 22q29 0 45 -22t12 -50q-6 -31 -30 -51q-25 -20 -54 -21q-31 0 -48 21q-17 20 -11 51q4 28 30 50zM882 1590q26 22 54 22q29 0 45 -22t12 -50q-6 -31 -30 -51q-25 -20 -54 -21q-29 0 -45 21q-16 20 -12 51q4 28 30 50zM188 338l-225 -338h-102 l891 1348l327 -1348h-98l-84 338h-709zM702 1120l-452 -690h622z" glyph-name="Adieresis" unicode="Ä"/><glyph d="M866 1522q-63 -53 -137 -54q-66 0 -107 42q-42 42 -42 106q0 8 4 33q16 76 78 129q61 53 137 53q66 0 107 -42q42 -42 42 -103q0 -12 -4 -37q-15 -74 -78 -127zM835 1720q-22 20 -55 21q-37 0 -66 -27q-30 -27 -40 -65q-6 -37 14 -64t60 -26q37 0 67 26q31 27 39 64 q2 6 2 18q1 33 -21 53zM188 338l-225 -338h-102l891 1348l327 -1348h-98l-84 338h-709zM702 1120l-452 -690h622z" glyph-name="Aring" unicode="Å"/><glyph d="M1769 1237h-768l-102 -524h598l-18 -95h-598l-103 -526h770l-18 -92h-862l69 365h-532l-242 -365h-102l876 1331h1051zM266 459h490l151 778h-129z" glyph-name="AE" horiz-adv-x="1953" unicode="Æ"/><glyph d="M835.5 52.5q-149.5 -66.5 -303.5 -66.5q-160 0 -285.5 71.5t-196 197.5t-70.5 280q0 66 12 133q35 184 156.5 339.5t294.5 248t356 92.5q141 0 260 -58.5t192 -165.5l-80 -63q-63 92 -165.5 143t-225.5 51q-158 0 -306 -78.5t-253.5 -214t-136.5 -294.5q-12 -57 -12 -115 q0 -133 61.5 -241.5t171 -170t246.5 -61.5q133 0 262 56.5t234 160.5l61 -57q-123 -121 -272.5 -187.5zM598 -268q-59 -39 -125 -39q-68 0 -111 39q-37 31 -36 78q0 14 2 22h80q-4 -23 20.5 -41t60.5 -18q35 0 67 18.5t38 40.5q2 25 -21.5 42t-60.5 17h-39l21 109h79l-8 -33 q45 -10 72 -33q39 -33 39 -84l-2 -18q-17 -63 -76 -100z" glyph-name="Ccedilla" horiz-adv-x="1402" unicode="Ç"/><glyph d="M602 1468l-188 207h168l125 -207h-105zM807 0h-862l260 1331h862l-18 -94h-770l-103 -524h600l-18 -95h-598l-103 -522h768z" glyph-name="Egrave" horiz-adv-x="1232" unicode="È"/><glyph d="M551 1468l209 207h168l-271 -207h-106zM807 0h-862l260 1331h862l-18 -94h-770l-103 -524h600l-18 -95h-598l-103 -522h768z" glyph-name="Eacute" horiz-adv-x="1232" unicode="É"/><glyph d="M887 1468h-105l-120 131l-170 -131h-105l207 207h166zM807 0h-862l260 1331h862l-18 -94h-770l-103 -524h600l-18 -95h-598l-103 -522h768z" glyph-name="Ecircumflex" horiz-adv-x="1232" unicode="Ê"/><glyph d="M423 1590q26 22 56 22q29 0 45 -22t13 -50q-6 -31 -31 -51t-53 -21q-31 0 -49 21q-17 20 -11 51q4 28 30 50zM804 1590q26 22 54 22q29 0 45 -22t12 -50q-6 -31 -30 -51q-25 -20 -54 -21q-29 0 -45 21q-16 20 -12 51q4 28 30 50zM807 0h-862l260 1331h862l-18 -94h-770 l-103 -524h600l-18 -95h-598l-103 -522h768z" glyph-name="Edieresis" horiz-adv-x="1232" unicode="Ë"/><glyph d="M68 0h-93l258 1331h95zM248 1446l-189 205h168l125 -205h-104z" glyph-name="Igrave" horiz-adv-x="522" unicode="Ì"/><glyph d="M68 0h-93l258 1331h95zM252 1446l209 205h168l-271 -205h-106z" glyph-name="Iacute" horiz-adv-x="528" unicode="Í"/><glyph d="M61 0h-94l258 1331h94zM549 1446h-105l-120 131l-170 -131h-105l207 205h166z" glyph-name="Icircumflex" horiz-adv-x="509" unicode="Î"/><glyph d="M61 0h-92l258 1331h92zM83 1566.5q26 20.5 56 20.5q29 0 45.5 -20.5t10.5 -48.5q-4 -31 -29 -51.5t-55 -20.5q-29 0 -46.5 20.5t-11.5 51.5q4 28 30 48.5zM463.5 1566.5q25.5 20.5 54.5 20.5t45.5 -20.5t9.5 -48.5q-4 -31 -28.5 -51.5t-55.5 -20.5q-29 0 -45 20.5 t-10 51.5q4 28 29.5 48.5z" glyph-name="Idieresis" horiz-adv-x="509" unicode="Ï"/><glyph d="M1315 807q0 -68 -12 -139q-27 -133 -94.5 -252t-170.5 -213q-106 -98 -237 -150.5t-271 -52.5h-385l121 618h-200l18 95h199l120 618h388q139 0 250.5 -52t179.5 -149q94 -133 94 -323zM1129.5 447.5q58.5 103.5 78.5 220.5q12 66 13 125q0 162 -82 274 q-59 84 -153.5 127t-213.5 43h-293l-102 -524h510l-19 -95h-510l-102 -526h293q246 0 436 174q86 78 144.5 181.5z" glyph-name="Eth" horiz-adv-x="1527" unicode="Ð"/><glyph d="M453 1492q-18 -17 -23 -24l-68 50q4 6 33 33q29 28 73 56t95 35q16 4 47 5q80 0 140 -52q41 -35 92 -34q18 0 28 2q33 6 63 25t49 37q19 17 24 24l69 -50q-4 -2 -58 -55t-149 -69q-16 -4 -45 -5q-76 0 -139 52q-43 35 -92 34q-18 0 -29 -2q-33 -6 -62 -25 q-30 -20 -48 -37zM956 -23l-704 1104l-211 -1081h-92l262 1348l707 -1102l210 1085h93z" glyph-name="Ntilde" horiz-adv-x="1388" unicode="Ñ"/><glyph d="M719 1468l-189 207h168l125 -207h-104zM888 77q-173 -91 -356 -91q-160 0 -285 71q-126 72 -197 197t-70 281q0 63 12 131q35 184 155 341q121 157 294 247q173 91 356 92q162 0 287 -72q126 -72 197 -198t71 -281q0 -61 -13 -129q-37 -184 -157 -341 q-121 -157 -294 -248zM1025 1190q-110 61 -247 61q-158 0 -306 -79t-253 -213q-104 -134 -135 -293q-12 -57 -12 -113q0 -133 61 -242t171 -170t247 -61q158 0 306 79t253 213q104 134 135 294q12 59 12 112q0 133 -61 242t-171 170z" glyph-name="Ograve" horiz-adv-x="1550" unicode="Ò"/><glyph d="M705 1468l208 207h168l-270 -207h-106zM888 77q-173 -91 -356 -91q-160 0 -285 71q-126 72 -197 197t-70 281q0 63 12 131q35 184 155 341q121 157 294 247q173 91 356 92q162 0 287 -72q126 -72 197 -198t71 -281q0 -61 -13 -129q-37 -184 -157 -341 q-121 -157 -294 -248zM1025 1190q-110 61 -247 61q-158 0 -306 -79t-253 -213q-104 -134 -135 -293q-12 -57 -12 -113q0 -133 61 -242t171 -170t247 -61q158 0 306 79t253 213q104 134 135 294q12 59 12 112q0 133 -61 242t-171 170z" glyph-name="Oacute" horiz-adv-x="1550" unicode="Ó"/><glyph d="M1020 1468h-105l-120 131l-170 -131h-105l207 207h166zM888 77q-173 -91 -356 -91q-160 0 -285 71q-126 72 -197 197t-70 281q0 63 12 131q35 184 155 341q121 157 294 247q173 91 356 92q162 0 287 -72q126 -72 197 -198t71 -281q0 -61 -13 -129q-37 -184 -157 -341 q-121 -157 -294 -248zM1025 1190q-110 61 -247 61q-158 0 -306 -79t-253 -213q-104 -134 -135 -293q-12 -57 -12 -113q0 -133 61 -242t171 -170t247 -61q158 0 306 79t253 213q104 134 135 294q12 59 12 112q0 133 -61 242t-171 170z" glyph-name="Ocircumflex" horiz-adv-x="1550" unicode="Ô"/><glyph d="M526 1492q-18 -17 -22 -24l-68 50q4 6 33 33q29 28 73 56t95 35q16 4 47 5q80 0 139 -52q41 -35 92 -34q18 0 29 2q33 6 63 25t49 37q19 17 23 24l70 -50q-4 -2 -58 -55t-149 -69q-16 -4 -45 -5q-76 0 -139 52q-43 35 -92 34q-18 0 -29 -2q-33 -6 -63 -25 q-30 -20 -48 -37zM888 77q-173 -91 -356 -91q-160 0 -285 71q-126 72 -197 197t-70 281q0 63 12 131q35 184 155 341q121 157 294 247q173 91 356 92q162 0 287 -72q126 -72 197 -198t71 -281q0 -61 -13 -129q-37 -184 -157 -341q-121 -157 -294 -248zM1025 1190 q-110 61 -247 61q-158 0 -306 -79t-253 -213q-104 -134 -135 -293q-12 -57 -12 -113q0 -133 61 -242t171 -170t247 -61q158 0 306 79t253 213q104 134 135 294q12 59 12 112q0 133 -61 242t-171 170z" glyph-name="Otilde" horiz-adv-x="1550" unicode="Õ"/><glyph d="M548 1590q26 22 56 22q29 0 45 -22t13 -50q-6 -31 -31 -51t-53 -21q-31 0 -49 21q-17 20 -11 51q4 28 30 50zM929 1590q26 22 54 22q29 0 45 -22t12 -50q-6 -31 -30 -51q-25 -20 -54 -21q-29 0 -45 21q-16 20 -12 51q4 28 30 50zM888 77q-173 -91 -356 -91 q-160 0 -285 71q-126 72 -197 197t-70 281q0 63 12 131q35 184 155 341q121 157 294 247q173 91 356 92q162 0 287 -72q126 -72 197 -198t71 -281q0 -61 -13 -129q-37 -184 -157 -341q-121 -157 -294 -248zM1025 1190q-110 61 -247 61q-158 0 -306 -79t-253 -213 q-104 -134 -135 -293q-12 -57 -12 -113q0 -133 61 -242t171 -170t247 -61q158 0 306 79t253 213q104 134 135 294q12 59 12 112q0 133 -61 242t-171 170z" glyph-name="Odieresis" horiz-adv-x="1550" unicode="Ö"/><glyph d="M711 920l-303 -252l204 -250l-80 -66l-200 250l-299 -252l-53 66l296 252l-200 252l76 65l204 -252l299 252z" glyph-name="multiply" horiz-adv-x="907" unicode="×"/><glyph d="M1301.5 1042.5q50.5 -110.5 50.5 -239.5q0 -66 -13 -133q-37 -184 -157.5 -340t-292.5 -247t-357 -91q-162 0 -284 69l-51 -61h-109l86 109q-92 76 -143 187.5t-51 244.5q0 66 12 129q37 184 157.5 340.5t292.5 248t357 91.5q160 0 291 -74l43 53h108l-82 -102 q92 -74 142.5 -184.5zM74 557q0 -113 43 -207t121 -160l790 1006q-113 61 -248 61q-158 0 -306 -78.5t-253.5 -214t-136.5 -294.5q-10 -50 -10 -113zM857.5 163q148.5 79 252.5 213t135 294q12 59 12 114q0 111 -41.5 203t-119.5 158l-787 -1002q106 -59 242 -59 q158 0 306.5 79z" glyph-name="Oslash" horiz-adv-x="1550" unicode="Ø"/><glyph d="M647 1468l-188 207h168l125 -207h-105zM656 26q-101 -40 -205 -40q-100 0 -186 40q-85 40 -142 113q-88 106 -88 260q0 45 10 103l162 829h92l-160 -829q-10 -51 -10 -88q0 -119 70 -211q104 -123 270 -123q84 0 166 32t151 91q70 57 117 135t64 164l161 829h93 l-162 -829q-20 -104 -77 -198q-56 -93 -140 -165q-85 -73 -186 -113z" glyph-name="Ugrave" horiz-adv-x="1386" unicode="Ù"/><glyph d="M602 1468l209 207h168l-270 -207h-107zM656 26q-101 -40 -205 -40q-100 0 -186 40q-85 40 -142 113q-88 106 -88 260q0 45 10 103l162 829h92l-160 -829q-10 -51 -10 -88q0 -119 70 -211q104 -123 270 -123q84 0 166 32t151 91q70 57 117 135t64 164l161 829h93 l-162 -829q-20 -104 -77 -198q-56 -93 -140 -165q-85 -73 -186 -113z" glyph-name="Uacute" horiz-adv-x="1386" unicode="Ú"/><glyph d="M946 1468h-104l-121 131l-170 -131h-105l207 207h166zM656 26q-101 -40 -205 -40q-100 0 -186 40q-85 40 -142 113q-88 106 -88 260q0 45 10 103l162 829h92l-160 -829q-10 -51 -10 -88q0 -119 70 -211q104 -123 270 -123q84 0 166 32t151 91q70 57 117 135t64 164 l161 829h93l-162 -829q-20 -104 -77 -198q-56 -93 -140 -165q-85 -73 -186 -113z" glyph-name="Ucircumflex" horiz-adv-x="1386" unicode="Û"/><glyph d="M474 1590q26 22 56 22q29 0 45 -22t13 -50q-6 -31 -31 -51t-53 -21q-31 0 -48 21q-17 20 -12 51q4 28 30 50zM855 1590q26 22 54 22q29 0 45 -22t13 -50q-6 -31 -31 -51t-53 -21q-29 0 -45 21q-16 20 -13 51q4 28 30 50zM656 26q-101 -40 -205 -40q-100 0 -186 40 q-85 40 -142 113q-88 106 -88 260q0 45 10 103l162 829h92l-160 -829q-10 -51 -10 -88q0 -119 70 -211q104 -123 270 -123q84 0 166 32t151 91q70 57 117 135t64 164l161 829h93l-162 -829q-20 -104 -77 -198q-56 -93 -140 -165q-85 -73 -186 -113z" glyph-name="Udieresis" horiz-adv-x="1386" unicode="Ü"/><glyph d="M651 1468l209 207h168l-270 -207h-107zM604 561l674 770h111l-758 -870l-90 -461h-95l93 461l-424 870h112z" glyph-name="Yacute" horiz-adv-x="1468" unicode="Ý"/><glyph d="M906 596q48 -70 48 -158q0 -29 -6 -63q-14 -72 -58 -140.5t-112 -121.5q-74 -53 -163 -83t-181 -30h-194l18 92h193q106 0 193 41t142.5 105.5t69.5 136.5q4 33 4 45q0 66 -36 117t-91 77q-90 43 -241 43h-125l18 95h66q111 0 205 71.5t114 171.5q4 29 4 43 q0 86 -64.5 142.5t-162.5 56.5q-111 0 -203 -70.5t-113 -171.5l-192 -995h-94l194 993q16 90 80 168t156 123t190 45q131 0 217 -79t86 -195q0 -29 -6 -60q-14 -78 -63 -145.5t-121 -114.5q70 -14 108 -35q72 -34 120 -104z" glyph-name="germandbls" horiz-adv-x="1230" unicode="ß"/><glyph d="M686 1468l-188 207h168l125 -207h-105zM188 338l-225 -338h-102l891 1348l327 -1348h-98l-84 338h-709zM702 1120l-452 -690h622z" glyph-name="agrave" unicode="à"/><glyph d="M655 1468l209 207h168l-270 -207h-107zM188 338l-225 -338h-102l891 1348l327 -1348h-98l-84 338h-709zM702 1120l-452 -690h622z" glyph-name="aacute" unicode="á"/><glyph d="M977 1468h-105l-120 131l-170 -131h-105l207 207h166zM188 338l-225 -338h-102l891 1348l327 -1348h-98l-84 338h-709zM702 1120l-452 -690h622z" glyph-name="acircumflex" unicode="â"/><glyph d="M481 1492q-18 -17 -22 -24l-68 50q4 6 33 33q29 28 73 56t95 35q16 4 47 5q80 0 139 -52q41 -35 92 -34q18 0 29 2q33 6 63 25t49 37q19 17 23 24l70 -50q-4 -2 -58 -55t-149 -69q-16 -4 -45 -5q-76 0 -139 52q-43 35 -92 34q-18 0 -29 -2q-33 -6 -63 -25 q-30 -20 -48 -37zM188 338l-225 -338h-102l891 1348l327 -1348h-98l-84 338h-709zM702 1120l-452 -690h622z" glyph-name="atilde" unicode="ã"/><glyph d="M501 1590q26 22 56 22q29 0 45 -22t12 -50q-6 -31 -30 -51q-25 -20 -54 -21q-31 0 -48 21q-17 20 -11 51q4 28 30 50zM882 1590q26 22 54 22q29 0 45 -22t12 -50q-6 -31 -30 -51q-25 -20 -54 -21q-29 0 -45 21q-16 20 -12 51q4 28 30 50zM188 338l-225 -338h-102 l891 1348l327 -1348h-98l-84 338h-709zM702 1120l-452 -690h622z" glyph-name="adieresis" unicode="ä"/><glyph d="M866 1522q-63 -53 -137 -54q-66 0 -107 42q-42 42 -42 106q0 8 4 33q16 76 78 129q61 53 137 53q66 0 107 -42q42 -42 42 -103q0 -12 -4 -37q-15 -74 -78 -127zM835 1720q-22 20 -55 21q-37 0 -66 -27q-30 -27 -40 -65q-6 -37 14 -64t60 -26q37 0 67 26q31 27 39 64 q2 6 2 18q1 33 -21 53zM188 338l-225 -338h-102l891 1348l327 -1348h-98l-84 338h-709zM702 1120l-452 -690h622z" glyph-name="aring" unicode="å"/><glyph d="M1769 1237h-768l-102 -524h598l-18 -95h-598l-103 -526h770l-18 -92h-862l69 365h-532l-242 -365h-102l876 1331h1051zM266 459h490l151 778h-129z" glyph-name="ae" horiz-adv-x="1953" unicode="æ"/><glyph d="M835.5 52.5q-149.5 -66.5 -303.5 -66.5q-160 0 -285.5 71.5t-196 197.5t-70.5 280q0 66 12 133q35 184 156.5 339.5t294.5 248t356 92.5q141 0 260 -58.5t192 -165.5l-80 -63q-63 92 -165.5 143t-225.5 51q-158 0 -306 -78.5t-253.5 -214t-136.5 -294.5q-12 -57 -12 -115 q0 -133 61.5 -241.5t171 -170t246.5 -61.5q133 0 262 56.5t234 160.5l61 -57q-123 -121 -272.5 -187.5zM598 -268q-59 -39 -125 -39q-68 0 -111 39q-37 31 -36 78q0 14 2 22h80q-4 -23 20.5 -41t60.5 -18q35 0 67 18.5t38 40.5q2 25 -21.5 42t-60.5 17h-39l21 109h79l-8 -33 q45 -10 72 -33q39 -33 39 -84l-2 -18q-17 -63 -76 -100z" glyph-name="ccedilla" horiz-adv-x="1402" unicode="ç"/><glyph d="M602 1468l-188 207h168l125 -207h-105zM807 0h-862l260 1331h862l-18 -94h-770l-103 -524h600l-18 -95h-598l-103 -522h768z" glyph-name="egrave" horiz-adv-x="1232" unicode="è"/><glyph d="M551 1468l209 207h168l-271 -207h-106zM807 0h-862l260 1331h862l-18 -94h-770l-103 -524h600l-18 -95h-598l-103 -522h768z" glyph-name="eacute" horiz-adv-x="1232" unicode="é"/><glyph d="M887 1468h-105l-120 131l-170 -131h-105l207 207h166zM807 0h-862l260 1331h862l-18 -94h-770l-103 -524h600l-18 -95h-598l-103 -522h768z" glyph-name="ecircumflex" horiz-adv-x="1232" unicode="ê"/><glyph d="M423 1590q26 22 56 22q29 0 45 -22t13 -50q-6 -31 -31 -51t-53 -21q-31 0 -49 21q-17 20 -11 51q4 28 30 50zM804 1590q26 22 54 22q29 0 45 -22t12 -50q-6 -31 -30 -51q-25 -20 -54 -21q-29 0 -45 21q-16 20 -12 51q4 28 30 50zM807 0h-862l260 1331h862l-18 -94h-770 l-103 -524h600l-18 -95h-598l-103 -522h768z" glyph-name="edieresis" horiz-adv-x="1232" unicode="ë"/><glyph d="M68 0h-93l258 1331h95zM248 1446l-189 205h168l125 -205h-104z" glyph-name="igrave" horiz-adv-x="522" unicode="ì"/><glyph d="M68 0h-93l258 1331h95zM252 1446l209 205h168l-271 -205h-106z" glyph-name="iacute" horiz-adv-x="528" unicode="í"/><glyph d="M61 0h-94l258 1331h94zM549 1446h-105l-120 131l-170 -131h-105l207 205h166z" glyph-name="icircumflex" horiz-adv-x="509" unicode="î"/><glyph d="M61 0h-92l258 1331h92zM83 1566.5q26 20.5 56 20.5q29 0 45.5 -20.5t10.5 -48.5q-4 -31 -29 -51.5t-55 -20.5q-29 0 -46.5 20.5t-11.5 51.5q4 28 30 48.5zM463.5 1566.5q25.5 20.5 54.5 20.5t45.5 -20.5t9.5 -48.5q-4 -31 -28.5 -51.5t-55.5 -20.5q-29 0 -45 20.5 t-10 51.5q4 28 29.5 48.5z" glyph-name="idieresis" horiz-adv-x="509" unicode="ï"/><glyph d="M453 1492q-18 -17 -23 -24l-68 50q4 6 33 33q29 28 73 56t95 35q16 4 47 5q80 0 140 -52q41 -35 92 -34q18 0 28 2q33 6 63 25t49 37q19 17 24 24l69 -50q-4 -2 -58 -55t-149 -69q-16 -4 -45 -5q-76 0 -139 52q-43 35 -92 34q-18 0 -29 -2q-33 -6 -62 -25 q-30 -20 -48 -37zM956 -23l-704 1104l-211 -1081h-92l262 1348l707 -1102l210 1085h93z" glyph-name="ntilde" horiz-adv-x="1388" unicode="ñ"/><glyph d="M719 1468l-189 207h168l125 -207h-104zM888 77q-173 -91 -356 -91q-160 0 -285 71q-126 72 -197 197t-70 281q0 63 12 131q35 184 155 341q121 157 294 247q173 91 356 92q162 0 287 -72q126 -72 197 -198t71 -281q0 -61 -13 -129q-37 -184 -157 -341 q-121 -157 -294 -248zM1025 1190q-110 61 -247 61q-158 0 -306 -79t-253 -213q-104 -134 -135 -293q-12 -57 -12 -113q0 -133 61 -242t171 -170t247 -61q158 0 306 79t253 213q104 134 135 294q12 59 12 112q0 133 -61 242t-171 170z" glyph-name="ograve" horiz-adv-x="1550" unicode="ò"/><glyph d="M705 1468l208 207h168l-270 -207h-106zM888 77q-173 -91 -356 -91q-160 0 -285 71q-126 72 -197 197t-70 281q0 63 12 131q35 184 155 341q121 157 294 247q173 91 356 92q162 0 287 -72q126 -72 197 -198t71 -281q0 -61 -13 -129q-37 -184 -157 -341 q-121 -157 -294 -248zM1025 1190q-110 61 -247 61q-158 0 -306 -79t-253 -213q-104 -134 -135 -293q-12 -57 -12 -113q0 -133 61 -242t171 -170t247 -61q158 0 306 79t253 213q104 134 135 294q12 59 12 112q0 133 -61 242t-171 170z" glyph-name="oacute" horiz-adv-x="1550" unicode="ó"/><glyph d="M1020 1468h-105l-120 131l-170 -131h-105l207 207h166zM888 77q-173 -91 -356 -91q-160 0 -285 71q-126 72 -197 197t-70 281q0 63 12 131q35 184 155 341q121 157 294 247q173 91 356 92q162 0 287 -72q126 -72 197 -198t71 -281q0 -61 -13 -129q-37 -184 -157 -341 q-121 -157 -294 -248zM1025 1190q-110 61 -247 61q-158 0 -306 -79t-253 -213q-104 -134 -135 -293q-12 -57 -12 -113q0 -133 61 -242t171 -170t247 -61q158 0 306 79t253 213q104 134 135 294q12 59 12 112q0 133 -61 242t-171 170z" glyph-name="ocircumflex" horiz-adv-x="1550" unicode="ô"/><glyph d="M526 1492q-18 -17 -22 -24l-68 50q4 6 33 33q29 28 73 56t95 35q16 4 47 5q80 0 139 -52q41 -35 92 -34q18 0 29 2q33 6 63 25t49 37q19 17 23 24l70 -50q-4 -2 -58 -55t-149 -69q-16 -4 -45 -5q-76 0 -139 52q-43 35 -92 34q-18 0 -29 -2q-33 -6 -63 -25 q-30 -20 -48 -37zM888 77q-173 -91 -356 -91q-160 0 -285 71q-126 72 -197 197t-70 281q0 63 12 131q35 184 155 341q121 157 294 247q173 91 356 92q162 0 287 -72q126 -72 197 -198t71 -281q0 -61 -13 -129q-37 -184 -157 -341q-121 -157 -294 -248zM1025 1190 q-110 61 -247 61q-158 0 -306 -79t-253 -213q-104 -134 -135 -293q-12 -57 -12 -113q0 -133 61 -242t171 -170t247 -61q158 0 306 79t253 213q104 134 135 294q12 59 12 112q0 133 -61 242t-171 170z" glyph-name="otilde" horiz-adv-x="1550" unicode="õ"/><glyph d="M548 1590q26 22 56 22q29 0 45 -22t13 -50q-6 -31 -31 -51t-53 -21q-31 0 -49 21q-17 20 -11 51q4 28 30 50zM929 1590q26 22 54 22q29 0 45 -22t12 -50q-6 -31 -30 -51q-25 -20 -54 -21q-29 0 -45 21q-16 20 -12 51q4 28 30 50zM888 77q-173 -91 -356 -91 q-160 0 -285 71q-126 72 -197 197t-70 281q0 63 12 131q35 184 155 341q121 157 294 247q173 91 356 92q162 0 287 -72q126 -72 197 -198t71 -281q0 -61 -13 -129q-37 -184 -157 -341q-121 -157 -294 -248zM1025 1190q-110 61 -247 61q-158 0 -306 -79t-253 -213 q-104 -134 -135 -293q-12 -57 -12 -113q0 -133 61 -242t171 -170t247 -61q158 0 306 79t253 213q104 134 135 294q12 59 12 112q0 133 -61 242t-171 170z" glyph-name="odieresis" horiz-adv-x="1550" unicode="ö"/><glyph d="M1301.5 1042.5q50.5 -110.5 50.5 -239.5q0 -66 -13 -133q-37 -184 -157.5 -340t-292.5 -247t-357 -91q-162 0 -284 69l-51 -61h-109l86 109q-92 76 -143 187.5t-51 244.5q0 66 12 129q37 184 157.5 340.5t292.5 248t357 91.5q160 0 291 -74l43 53h108l-82 -102 q92 -74 142.5 -184.5zM74 557q0 -113 43 -207t121 -160l790 1006q-113 61 -248 61q-158 0 -306 -78.5t-253.5 -214t-136.5 -294.5q-10 -50 -10 -113zM857.5 163q148.5 79 252.5 213t135 294q12 59 12 114q0 111 -41.5 203t-119.5 158l-787 -1002q106 -59 242 -59 q158 0 306.5 79z" glyph-name="oslash" horiz-adv-x="1550" unicode="ø"/><glyph d="M647 1468l-188 207h168l125 -207h-105zM656 26q-101 -40 -205 -40q-100 0 -186 40q-85 40 -142 113q-88 106 -88 260q0 45 10 103l162 829h92l-160 -829q-10 -51 -10 -88q0 -119 70 -211q104 -123 270 -123q84 0 166 32t151 91q70 57 117 135t64 164l161 829h93 l-162 -829q-20 -104 -77 -198q-56 -93 -140 -165q-85 -73 -186 -113z" glyph-name="ugrave" horiz-adv-x="1386" unicode="ù"/><glyph d="M602 1468l209 207h168l-270 -207h-107zM656 26q-101 -40 -205 -40q-100 0 -186 40q-85 40 -142 113q-88 106 -88 260q0 45 10 103l162 829h92l-160 -829q-10 -51 -10 -88q0 -119 70 -211q104 -123 270 -123q84 0 166 32t151 91q70 57 117 135t64 164l161 829h93 l-162 -829q-20 -104 -77 -198q-56 -93 -140 -165q-85 -73 -186 -113z" glyph-name="uacute" horiz-adv-x="1386" unicode="ú"/><glyph d="M946 1468h-104l-121 131l-170 -131h-105l207 207h166zM656 26q-101 -40 -205 -40q-100 0 -186 40q-85 40 -142 113q-88 106 -88 260q0 45 10 103l162 829h92l-160 -829q-10 -51 -10 -88q0 -119 70 -211q104 -123 270 -123q84 0 166 32t151 91q70 57 117 135t64 164 l161 829h93l-162 -829q-20 -104 -77 -198q-56 -93 -140 -165q-85 -73 -186 -113z" glyph-name="ucircumflex" horiz-adv-x="1386" unicode="û"/><glyph d="M474 1590q26 22 56 22q29 0 45 -22t13 -50q-6 -31 -31 -51t-53 -21q-31 0 -48 21q-17 20 -12 51q4 28 30 50zM855 1590q26 22 54 22q29 0 45 -22t13 -50q-6 -31 -31 -51t-53 -21q-29 0 -45 21q-16 20 -13 51q4 28 30 50zM656 26q-101 -40 -205 -40q-100 0 -186 40 q-85 40 -142 113q-88 106 -88 260q0 45 10 103l162 829h92l-160 -829q-10 -51 -10 -88q0 -119 70 -211q104 -123 270 -123q84 0 166 32t151 91q70 57 117 135t64 164l161 829h93l-162 -829q-20 -104 -77 -198q-56 -93 -140 -165q-85 -73 -186 -113z" glyph-name="udieresis" horiz-adv-x="1386" unicode="ü"/><glyph d="M651 1468l209 207h168l-270 -207h-107zM604 561l674 770h111l-758 -870l-90 -461h-95l93 461l-424 870h112z" glyph-name="yacute" horiz-adv-x="1468" unicode="ý"/><glyph d="M517 1590q26 22 56 22q29 0 45 -22t13 -50q-6 -31 -31 -51t-53 -21q-31 0 -48 21q-17 20 -12 51q4 28 30 50zM898 1590q26 22 54 22q29 0 45 -22t13 -50q-6 -31 -31 -51t-53 -21q-29 0 -45 21q-16 20 -13 51q4 28 30 50zM604 561l674 770h111l-758 -870l-90 -461h-95 l93 461l-424 870h112z" glyph-name="ydieresis" horiz-adv-x="1468" unicode="ÿ"/><glyph d="M1348 1239l-103 -524h600l-18 -97h-600l-103 -526h768l-18 -92h-860l39 193q-113 -94 -248 -147.5t-273 -53.5q-160 0 -285.5 70.5t-196 195.5t-70.5 281q0 63 12 131q37 184 157.5 340.5t292.5 248t357 91.5q137 0 249.5 -53.5t188.5 -147.5l35 182h860l-18 -92h-766z M837.5 152.5q139.5 68.5 241.5 185.5l129 666q-57 117 -169.5 185t-258.5 68q-158 0 -306 -78.5t-253.5 -214t-136.5 -294.5q-10 -49 -10 -111q0 -135 60.5 -242.5t169 -170t247.5 -62.5q147 0 286.5 68.5z" glyph-name="OE" horiz-adv-x="2297" unicode="Œ"/><glyph d="M1348 1239l-103 -524h600l-18 -97h-600l-103 -526h768l-18 -92h-860l39 193q-113 -94 -248 -147.5t-273 -53.5q-160 0 -285.5 70.5t-196 195.5t-70.5 281q0 63 12 131q37 184 157.5 340.5t292.5 248t357 91.5q137 0 249.5 -53.5t188.5 -147.5l35 182h860l-18 -92h-766z M837.5 152.5q139.5 68.5 241.5 185.5l129 666q-57 117 -169.5 185t-258.5 68q-158 0 -306 -78.5t-253.5 -214t-136.5 -294.5q-10 -49 -10 -111q0 -135 60.5 -242.5t169 -170t247.5 -62.5q147 0 286.5 68.5z" glyph-name="oe" horiz-adv-x="2297" unicode="œ"/><glyph d="M1141 1468h-105l-121 131l-170 -131h-104l207 207h166zM1090 264l536 1067h98l-684 -1354l-184 992l-577 -992l-158 1354h96l125 -1071l563 967z" glyph-name="Wcircumflex" horiz-adv-x="1808" unicode="Ŵ"/><glyph d="M1141 1468h-105l-121 131l-170 -131h-104l207 207h166zM1090 264l536 1067h98l-684 -1354l-184 992l-577 -992l-158 1354h96l125 -1071l563 967z" glyph-name="wcircumflex" horiz-adv-x="1808" unicode="ŵ"/><glyph d="M983 1468h-104l-121 131l-170 -131h-105l207 207h166zM604 561l674 770h111l-758 -870l-90 -461h-95l93 461l-424 870h112z" glyph-name="Ycircumflex" horiz-adv-x="1468" unicode="Ŷ"/><glyph d="M983 1468h-104l-121 131l-170 -131h-105l207 207h166zM604 561l674 770h111l-758 -870l-90 -461h-95l93 461l-424 870h112z" glyph-name="ycircumflex" horiz-adv-x="1468" unicode="ŷ"/><glyph d="M517 1590q26 22 56 22q29 0 45 -22t13 -50q-6 -31 -31 -51t-53 -21q-31 0 -48 21q-17 20 -12 51q4 28 30 50zM898 1590q26 22 54 22q29 0 45 -22t13 -50q-6 -31 -31 -51t-53 -21q-29 0 -45 21q-16 20 -13 51q4 28 30 50zM604 561l674 770h111l-758 -870l-90 -461h-95 l93 461l-424 870h112z" glyph-name="Ydieresis" horiz-adv-x="1468" unicode="Ÿ"/><glyph d="M-82 1468l-188 207h168l125 -207h-105z" glyph-name="gravecomb" horiz-adv-x="0" unicode="̀"/><glyph d="M-313 1468l209 207h167l-270 -207h-106z" glyph-name="acutecomb" horiz-adv-x="0" unicode="́"/><glyph d="M25 1468h-105l-121 131l-170 -131h-104l207 207h166z" glyph-name="uni0302" horiz-adv-x="0" unicode="̂"/><glyph d="M-573.5 1492q-18.5 -17 -22.5 -24l-68 50q4 6 33 33.5t73 55t95 35.5q16 4 47 5q80 0 140 -52q41 -35 92 -34q18 0 28 2q33 6 63 25.5t49 36.5t24 24l69 -50q-4 -2 -58 -55t-149 -69q-16 -4 -45 -5q-76 0 -139 52q-43 35 -92 34q-18 0 -29 -2q-33 -6 -62.5 -25.5 t-48 -36.5z" glyph-name="tildecomb" horiz-adv-x="0" unicode="̃"/><glyph d="M-76.5 1590.5q25.5 21.5 53.5 21.5q31 0 47.5 -21.5t12.5 -52.5q-6 -29 -30.5 -49.5t-55.5 -20.5q-29 0 -45.5 20.5t-11.5 49.5q4 31 29.5 52.5z" glyph-name="uni0307" horiz-adv-x="0" unicode="̇"/><glyph d="M-410.5 1590.5q25.5 21.5 56.5 21.5q29 0 45 -21.5t12 -50.5q-6 -31 -30.5 -51.5t-53.5 -20.5q-31 0 -48 20.5t-11 51.5q4 29 29.5 50.5zM-29.5 1590.5q25.5 21.5 54.5 21.5t45 -21.5t12 -50.5q-6 -31 -30.5 -51.5t-53.5 -20.5t-45 20.5t-12 51.5q4 29 29.5 50.5z" glyph-name="uni0308" horiz-adv-x="0" unicode="̈"/><glyph d="M-22.5 1521.5q-63.5 -53.5 -137.5 -53.5q-66 0 -107.5 42t-41.5 106q0 8 4 33q16 76 77.5 129t137.5 53q66 0 107.5 -42t41.5 -103q0 -12 -4 -37q-14 -74 -77.5 -127.5zM-54.5 1720.5q-21.5 20.5 -54.5 20.5q-37 0 -66.5 -26.5t-39.5 -65.5q-6 -37 14.5 -63.5t59.5 -26.5 q37 0 67.5 26.5t38.5 63.5q2 6 2 18q0 33 -21.5 53.5z" glyph-name="uni030A" horiz-adv-x="0" unicode="̊"/><glyph d="M-860 -268q-59 -39 -125 -39q-68 0 -111 39q-37 31 -37 78q0 14 3 22h79q-4 -23 20.5 -41t61.5 -18q35 0 67 18.5t38 40.5q2 25 -21.5 42t-60.5 17h-39l20 109h80l-8 -33q45 -10 72 -33q39 -33 39 -84l-2 -18q-17 -63 -76 -100z" glyph-name="uni0327" horiz-adv-x="0" unicode="̧"/><glyph d="M-690 618h-803l18 95h803z" glyph-name="uni0335" horiz-adv-x="0" unicode="̵"/><glyph d="M-1602 0l1041 1331h108l-1042 -1331h-107z" glyph-name="uni0338" horiz-adv-x="0" unicode="̸"/><glyph d="M852 1468l-188 207h167l125 -207h-104zM1090 264l536 1067h98l-684 -1354l-184 992l-577 -992l-158 1354h96l125 -1071l563 967z" glyph-name="Wgrave" horiz-adv-x="1808" unicode="Ẁ"/><glyph d="M852 1468l-188 207h167l125 -207h-104zM1090 264l536 1067h98l-684 -1354l-184 992l-577 -992l-158 1354h96l125 -1071l563 967z" glyph-name="wgrave" horiz-adv-x="1808" unicode="ẁ"/><glyph d="M825 1468l209 207h168l-270 -207h-107zM1090 264l536 1067h98l-684 -1354l-184 992l-577 -992l-158 1354h96l125 -1071l563 967z" glyph-name="Wacute" horiz-adv-x="1808" unicode="Ẃ"/><glyph d="M825 1468l209 207h168l-270 -207h-107zM1090 264l536 1067h98l-684 -1354l-184 992l-577 -992l-158 1354h96l125 -1071l563 967z" glyph-name="wacute" horiz-adv-x="1808" unicode="ẃ"/><glyph d="M677 1590q26 22 56 22q29 0 45 -22t13 -50q-6 -31 -31 -51t-53 -21q-31 0 -49 21q-17 20 -11 51q4 28 30 50zM1058 1590q26 22 54 22q29 0 45 -22t12 -50q-6 -31 -30 -51q-25 -20 -54 -21q-29 0 -45 21q-16 20 -12 51q4 28 30 50zM1090 264l536 1067h98l-684 -1354 l-184 992l-577 -992l-158 1354h96l125 -1071l563 967z" glyph-name="Wdieresis" horiz-adv-x="1808" unicode="Ẅ"/><glyph d="M677 1590q26 22 56 22q29 0 45 -22t13 -50q-6 -31 -31 -51t-53 -21q-31 0 -49 21q-17 20 -11 51q4 28 30 50zM1058 1590q26 22 54 22q29 0 45 -22t12 -50q-6 -31 -30 -51q-25 -20 -54 -21q-29 0 -45 21q-16 20 -12 51q4 28 30 50zM1090 264l536 1067h98l-684 -1354 l-184 992l-577 -992l-158 1354h96l125 -1071l563 967z" glyph-name="wdieresis" horiz-adv-x="1808" unicode="ẅ"/><glyph d="M698 1468l-188 207h168l125 -207h-105zM604 561l674 770h111l-758 -870l-90 -461h-95l93 461l-424 870h112z" glyph-name="Ygrave" horiz-adv-x="1468" unicode="Ỳ"/><glyph d="M698 1468l-188 207h168l125 -207h-105zM604 561l674 770h111l-758 -870l-90 -461h-95l93 461l-424 870h112z" glyph-name="ygrave" horiz-adv-x="1468" unicode="ỳ"/><glyph d="M819 618h-803l19 95h803z" glyph-name="endash" horiz-adv-x="1075" unicode="–"/><glyph d="M139 1135l107 196h106l-141 -196h-72z" glyph-name="quoteleft" horiz-adv-x="471" unicode="‘"/><glyph d="M139 1135l107 196h106l-141 -196h-72z" glyph-name="quoteright" horiz-adv-x="471" unicode="’"/><glyph d="M-133 -100l104 198h107l-139 -198h-72z" glyph-name="quotesinglbase" horiz-adv-x="458" unicode="‚"/><glyph d="M360 1135l109 196h104l-139 -196h-74zM150 1135l108 196h104l-139 -196h-73z" glyph-name="quotedblleft" horiz-adv-x="724" unicode="“"/><glyph d="M360 1135l109 196h104l-139 -196h-74zM150 1135l108 196h104l-139 -196h-73z" glyph-name="quotedblright" horiz-adv-x="724" unicode="”"/><glyph d="M-133 -100l104 198h107l-139 -198h-72zM-133 -100h72l139 198h-107z" glyph-name="quotedblbase" horiz-adv-x="458" unicode="„"/><glyph d="M-57.5 21.5q-16.5 21.5 -10.5 48.5q6 31 31 52t53 21q29 0 46.5 -22.5t13.5 -50.5q-6 -29 -33 -49.5t-55 -20.5q-29 0 -45.5 21.5zM229.5 20.5q-16.5 20.5 -12.5 49.5q8 31 32.5 52t53.5 21t45.5 -22.5t11.5 -50.5q-4 -29 -29.5 -49.5t-54.5 -20.5q-30 0 -46.5 20.5z M516 20.5q-16 20.5 -12 49.5t30.5 51t55.5 22t45 -22.5t12 -50.5q-6 -29 -30.5 -49.5t-53.5 -20.5q-31 0 -47 20.5z" glyph-name="ellipsis" horiz-adv-x="1032" unicode="…"/><glyph d="M205 668l434 -369l-23 -115l-569 484l756 475l-23 -113z" glyph-name="guilsinglleft" horiz-adv-x="980" unicode="‹"/><glyph d="M121 1032l20 117l572 -481l-758 -480l22 115l576 365z" glyph-name="guilsinglright" horiz-adv-x="983" unicode="›"/><glyph d="M-104 0l1042 1331h109l-1045 -1331h-106z" glyph-name="fraction" horiz-adv-x="1163" unicode="⁄"/><glyph d="M634 1147.5q-167 -103.5 -263 -268.5h542l-16 -95h-573q-25 -66 -35 -118q-12 -57 -13 -117h574l-16 -92h-547q31 -168 157.5 -272.5t311.5 -104.5h194l-18 -94h-195q-147 0 -265 60t-192.5 168t-91.5 243h-237l16 92h217q0 51 11 117q18 76 34 118h-215l19 95h237 q70 135 185.5 241.5t257 166t288.5 59.5h195l-18 -95h-195q-182 0 -349 -103.5z" glyph-name="Euro" horiz-adv-x="1359" unicode="€"/><glyph glyph-name="trademark" horiz-adv-x="1361" unicode="™"/><glyph d="M819 618h-803l19 95h803z" glyph-name="minus" horiz-adv-x="1075" unicode="−"/><glyph d="M745 1348l332 -1348h-102l-277 1120l-735 -1120h-102z" glyph-name="glyph203" horiz-adv-x="1421"/><glyph d="M745 1348l332 -1348h-102l-277 1120l-735 -1120h-102z" glyph-name="glyph204" horiz-adv-x="1421"/></font>
</defs>
</svg>
