<?xml version="1.0" standalone="no"?>
<!DOCTYPE svg PUBLIC "-//W3C//DTD SVG 1.1//EN" "http://www.w3.org/Graphics/SVG/1.1/DTD/svg11.dtd">
<svg xmlns="http://www.w3.org/2000/svg"><metadata>This SVG WebFont was generated by YouWorkForThem.
Ellen Luff</metadata><defs><font horiz-adv-x="1398" id="ywftsvg"><font-face ascent="1638" bbox="-1962 -451 2793 1898" cap-height="1348" descent="-410" font-family="" font-stretch="normal" font-weight="700" panose-1="0 0 8 0 0 0 0 0 0 0" underline-position="0" underline-thickness="0" unicode-range="U+0020-2212" units-per-em="2048" x-height="1348"/><missing-glyph d="M756 1434v-1844h-584v1844h584zM614 176h-307v-209h307v209zM553 117v-88h-184v88h184zM614 496h-184v-103h62v41h61v-86h-184v148h-62v-209h307v209zM614 721h-61v-123h-246v-61h307v184zM614 831h-307v-61h123v-68h-123v-61h185v129h122v61zM430 1010v-66h-61v66h61z M492 1073h-185v-192h307v63h-122v129zM614 1311h-305v-62h121v-67h-123v-62h307v62h-122v67h122v62zM614 -74h-307v-61h129l-129 -86v-62h307v62h-188l129 86h59v61z" horiz-adv-x="921"/><glyph d="M756 1434v-1844h-584v1844h584zM614 176h-307v-209h307v209zM553 117v-88h-184v88h184zM614 496h-184v-103h62v41h61v-86h-184v148h-62v-209h307v209zM614 721h-61v-123h-246v-61h307v184zM614 831h-307v-61h123v-68h-123v-61h185v129h122v61zM430 1010v-66h-61v66h61z M492 1073h-185v-192h307v63h-122v129zM614 1311h-305v-62h121v-67h-123v-62h307v62h-122v67h122v62zM614 -74h-307v-61h129l-129 -86v-62h307v62h-188l129 86h59v61z" glyph-name=".notdef" horiz-adv-x="921"/><glyph glyph-name="glyph1" horiz-adv-x="0"/><glyph glyph-name="glyph2" horiz-adv-x="682"/><glyph glyph-name="space" horiz-adv-x="614" unicode=" "/><glyph d="M208 195.5q34 33.5 81 33.5t80.5 -33.5t33.5 -80.5t-33.5 -81t-80.5 -34t-81 34t-34 81t34 80.5zM403 1348v-232l-28 -788h-170l-31 788v232h229z" glyph-name="exclam" horiz-adv-x="577" unicode="!"/><glyph d="M530 1118l109 316h188l-163 -316h-134zM154 1118l110 316h189l-166 -316h-133z" glyph-name="quotedbl" horiz-adv-x="980" unicode="&quot;"/><glyph d="M1536 836h-287l-43 -324h287l-31 -227h-286l-37 -285h-232l39 285h-325l-39 -285h-230l37 285h-287l31 227h287l43 324h-287l31 227h287l36 285h232l-39 -285h328l36 285h230l-37 -285h287zM977 512l43 324h-326l-43 -324h326z" glyph-name="numbersign" horiz-adv-x="1669" unicode="#"/><glyph d="M1032 561q53 -84 53 -184q0 -49 -16 -109q-45 -150 -186 -223q-68 -37 -158 -51v-197h-229v203q-195 33 -353 178l158 168q141 -129 330 -129q109 0 158 38t61 81q6 23 6 41q0 59 -47 95t-100 52l-254 74q-174 55 -256 184q-53 84 -54 183q0 49 17 108q43 150 186 225 q72 37 148 50v202h229v-204q201 -33 362 -181l-157 -170q-139 131 -330 131q-109 0 -156 -36.5t-63 -81.5q-6 -20 -6 -41q0 -59 47 -95t100 -53l254 -76q174 -53 256 -182z" glyph-name="dollar" horiz-adv-x="1230" unicode="$"/><glyph d="M1480.5 37q-69.5 -41 -151.5 -41t-150.5 41t-109.5 111.5t-41 152.5t41 152.5t109.5 111.5t150.5 41t151.5 -41t110.5 -111.5t41 -152.5t-41 -152.5t-110.5 -111.5zM1381.5 353.5q-21.5 21.5 -52.5 21.5q-29 0 -50.5 -21.5t-21.5 -52.5t21.5 -53.5t50.5 -22.5 q31 0 52.5 22.5t21.5 53.5t-21.5 52.5zM598 776q-70 -41 -152 -41t-151.5 41t-110.5 110.5t-41 151.5t41 153t111 111.5t151 40.5q82 0 152 -40.5t111 -111.5t41 -153t-41 -151.5t-111 -110.5zM498.5 1091.5q-21.5 22.5 -52.5 22.5t-52 -22.5t-21 -53.5t21.5 -52t51.5 -21 q31 0 52.5 21.5t21.5 51.5q0 31 -21.5 53.5zM1419 1348l-792 -1348h-269l793 1348h268z" glyph-name="percent" horiz-adv-x="1775" unicode="%"/><glyph d="M1384 0h-323l-111 109q-162 -121 -303 -121q-127 0 -233.5 52t-168 142t-61.5 199q0 176 140 287q14 12 47 32q-109 125 -109 283q0 78 30 146.5t87 119.5q53 51 123.5 79t148.5 28t147.5 -28t125.5 -79q57 -51 86.5 -119.5t29.5 -146.5q0 -137 -122 -248l-162 166 q55 47 55 82q0 59 -46 101t-114 42t-113.5 -42t-45.5 -101q0 -80 71 -152zM786 274l-251 256q-66 -35 -92.5 -67.5t-26.5 -81.5q0 -68 67.5 -116t163.5 -48q51 0 139 57zM1370 446l-55 -45l-39 -30l-162 164l49 40l43 35z" glyph-name="ampersand" horiz-adv-x="1548" unicode="&amp;"/><glyph d="M143 1118l111 316h186l-164 -316h-133z" glyph-name="quotesingle" horiz-adv-x="563" unicode="'"/><glyph d="M426 301q53 -57 129 -76v-233q-158 20 -270 127q-68 61 -105 139t-37 160v512q0 82 37 159.5t105 139.5q57 53 126.5 86t143.5 41v-234q-72 -20 -127 -74.5t-55 -117.5v-512q0 -60 53 -117z" glyph-name="parenleft" horiz-adv-x="698" unicode="("/><glyph d="M272.5 301q53.5 57 53.5 117v512q0 66 -54.5 119t-128.5 73v234q152 -16 273 -127q68 -61 104.5 -139t36.5 -160v-512q0 -80 -37 -159t-104 -140q-117 -109 -273 -127v233q76 19 129.5 76z" glyph-name="parenright" horiz-adv-x="700" unicode=")"/><glyph d="M881 1034l-213 -67l131 -183l-187 -135l-131 182l-131 -182l-186 135l131 183l-213 69l72 217l213 -67v223h229v-223l213 67z" glyph-name="asterisk" horiz-adv-x="962" unicode="*"/><glyph d="M868 791v-232h-245v-246h-232v246h-248v232h248v247h232v-247h245z" glyph-name="plus" horiz-adv-x="1011" unicode="+"/><glyph d="M113 -158l110 316h187l-164 -316h-133z" glyph-name="comma" horiz-adv-x="552" unicode=","/><glyph d="M868 561h-725v230h725v-230z" glyph-name="hyphen" horiz-adv-x="1011" unicode="-"/><glyph d="M174 30.5q-31 30.5 -31 75.5q0 43 32 75t75 32t74.5 -31.5t31.5 -75.5q0 -45 -30.5 -75.5t-75.5 -30.5t-76 30.5z" glyph-name="period" horiz-adv-x="499" unicode="."/><glyph d="M1186 1348l-795 -1348h-268l795 1348h268z" glyph-name="slash" horiz-adv-x="1308" unicode="/"/><glyph d="M804 20.5q-83 -32.5 -173 -32.5t-174 32.5t-152 96.5q-68 63 -104.5 141t-36.5 158v514q0 80 37 157.5t104 141.5q68 63 152 96t174 33t173 -33t150 -96q68 -63 105 -141t37 -158v-514q0 -80 -37 -158t-105 -141q-67 -64 -150 -96.5zM744.5 1097.5 q-54.5 30.5 -113.5 30.5q-53 0 -108.5 -27.5t-91.5 -73.5t-36 -97v-514q0 -45 33 -91t87 -77t116 -31q59 0 113.5 31t87 77t32.5 91v514q0 45 -32.5 91t-87 76.5z" glyph-name="zero" horiz-adv-x="1239" unicode="0"/><glyph d="M82 817l588 561v-1378h-230v840l-358 -342v319z" glyph-name="one" horiz-adv-x="839" unicode="1"/><glyph d="M1069 229v-229h-946q193 266 360 487q180 238 241.5 333t61.5 159q0 14 -2 20q-8 63 -65 105q-43 29 -94 29q-57 0 -111.5 -33t-97.5 -84q-10 -12 -25.5 -30.5t-21.5 -27.5l-181 142l52 65q78 98 176 149.5t202 51.5q125 0 232 -74q66 -45 107.5 -111.5t54.5 -144.5 q4 -20 4 -61q0 -80 -33 -158t-88 -157.5t-162 -221.5q-47 -59 -158 -209h494z" glyph-name="two" horiz-adv-x="1191" unicode="2"/><glyph d="M990 587q42 -87 42 -177q0 -88 -37 -167t-106 -139q-66 -57 -151 -86.5t-177 -29.5q-90 0 -175 29.5t-150 86.5q-80 70 -113 154v2l199 146q2 -37 20 -70t43 -55q74 -63 176 -64q106 0 176 64q66 55 66 129q0 55 -36 105t-79 85l-158 121q18 18 59.5 59t65.5 68 q41 43 54.5 70.5t13.5 66.5q0 59 -48 102t-114 43t-113 -43t-47 -102h-229q0 102 52 188.5t141.5 137.5t195.5 51t196.5 -51t142.5 -137.5t52 -188.5q0 -135 -80 -240q76 -71 118 -158z" glyph-name="three" horiz-adv-x="1155" unicode="3"/><glyph d="M1022 0h-229v303h-691l641 1045h279v-816h221v-229h-221v-303zM514 532h279v455z" glyph-name="four" horiz-adv-x="1314" unicode="4"/><glyph d="M855.5 45q-107.5 -57 -239.5 -57q-90 0 -174 27.5t-151 80.5q-70 55 -109 129t-39 152h232q0 -37 32.5 -75t88 -61.5t120.5 -23.5q106 0 177 64q66 53 65 139q0 33 -16.5 65.5t-44.5 59.5q-70 61 -181 61h-309l-125 -2l56 744h772v-230h-559l-21 -282q72 2 186 2 q94 0 180.5 -31t151.5 -90q68 -59 105 -137t37 -160q0 -121 -63.5 -219.5t-171 -155.5z" glyph-name="five" horiz-adv-x="1181" unicode="5"/><glyph d="M559 1348h260l-264 -512q12 2 41 2q92 0 177 -31t153 -88q70 -61 106.5 -140t36.5 -167t-37 -167t-106 -139q-68 -57 -153 -87.5t-177 -30.5t-177 30.5t-151 87.5q-70 59 -107.5 138.5t-37.5 167.5q0 98 43 180zM424 550q-72 -56 -72 -138q0 -72 66 -131q74 -63 178 -64 q104 0 178 64q66 55 66 131q0 78 -66 133q-74 61 -178 61q-100 0 -172 -56z" glyph-name="six" horiz-adv-x="1150" unicode="6"/><glyph d="M1092 1348l-707 -1348h-260l586 1116h-598v232h979z" glyph-name="seven" horiz-adv-x="1193" unicode="7"/><glyph d="M1027 576.5q38 -78.5 38 -166.5q0 -86 -38 -165t-107 -139q-66 -57 -150 -87.5t-176 -30.5t-177 30.5t-151 87.5q-70 59 -106.5 138.5t-36.5 165.5q0 88 37 166.5t106 138.5l29 22q-92 104 -92 244q0 102 53 188t142 137.5t196 51.5q106 0 195.5 -51.5t142.5 -137.5 t53 -188q0 -139 -92 -244l27 -22q69 -60 107 -138.5zM480 877q48 -43 114 -43t113 43t47 104q0 59 -47.5 103t-112.5 44q-66 0 -114 -44t-48 -103q0 -61 48 -104zM817.5 341q16.5 34 16.5 69q0 74 -64 131q-74 61 -176 61q-104 0 -176 -61q-66 -55 -66 -131t66 -129 q70 -63 176 -64q102 0 176 64q31 26 47.5 60z" glyph-name="eight" horiz-adv-x="1167" unicode="8"/><glyph d="M629 0h-260l270 514l-41 -2q-94 0 -179 30.5t-151 88.5q-70 61 -107.5 141t-37.5 166t38 166t107 139q66 57 151 88t179 31q92 0 177 -31t151 -88q70 -59 107.5 -138t37.5 -167q0 -94 -45 -180zM767 797.5q73 54.5 73 140.5q0 74 -64 131q-74 63 -178 64q-109 0 -178 -64 q-66 -55 -66 -131q0 -78 66 -133q72 -61 178 -62q96 0 169 54.5z" glyph-name="nine" horiz-adv-x="1193" unicode="9"/><glyph d="M175 153.5q-32 30.5 -32 75.5q0 43 32 75t75 32q45 0 75.5 -32t30.5 -75q0 -45 -30.5 -75.5t-75.5 -30.5q-43 0 -75 30.5zM175 796.5q-32 30.5 -32 75.5q0 43 32 75t75 32q45 0 75.5 -32t30.5 -75q0 -45 -30.5 -75.5t-75.5 -30.5q-43 0 -75 30.5z" glyph-name="colon" horiz-adv-x="499" unicode=":"/><glyph d="M268.5 624.5q-30.5 30.5 -30.5 75.5q0 43 30.5 75t75.5 32q43 0 75 -32t32 -75q0 -45 -32 -75.5t-75 -30.5q-45 0 -75.5 30.5zM143 -158l111 316h186l-164 -316h-133z" glyph-name="semicolon" horiz-adv-x="593" unicode=";"/><glyph d="M866 436v-284l-723 524l723 522v-283l-331 -239z" glyph-name="less" horiz-adv-x="1009" unicode="&lt;"/><glyph d="M868 317h-725v230h725v-230zM868 756h-725v229h725v-229z" glyph-name="equal" horiz-adv-x="1011" unicode="="/><glyph d="M143 915v285l725 -524l-725 -522v282l332 240z" glyph-name="greater" horiz-adv-x="1011" unicode=">"/><glyph d="M678 367v-52h-199v52q0 86 23.5 145t56.5 94t84 78q33 25 47 39q74 59 109 105t35 110q0 35 -16.5 68.5t-47.5 60.5q-74 63 -176 63q-106 0 -176 -63q-66 -53 -66 -129h-229q0 84 41 170q37 74 102 133q66 57 151 88t177 31t176 -31t150 -88q68 -57 104 -133 q39 -80 39 -170q0 -137 -64.5 -226t-162.5 -169l-50 -39l-34 -27q-39 -27 -56.5 -48t-17.5 -62zM513 183.5q34 33.5 81 33.5t81 -33.5t34 -81.5q0 -45 -34 -79.5t-81 -34.5t-81 33.5t-34 80.5q0 48 34 81.5z" glyph-name="question" horiz-adv-x="1226" unicode="?"/><glyph d="M1568.5 971.5q59.5 -142.5 59.5 -297.5q0 -78 -29.5 -147.5t-85.5 -123.5q-51 -47 -115.5 -73.5t-133.5 -26.5q-70 0 -132.5 26.5t-109.5 78.5l-16 16q-68 -39 -146 -39t-144.5 39t-105.5 106.5t-39 145.5q0 80 39 146.5t105.5 105.5t144.5 39q51 0 92 -15h195l2 -299 q4 -49 34.5 -83.5t80.5 -34.5q49 0 92 36.5t43 102.5q0 106 -42 207.5t-118 177.5t-174 114.5t-205 38.5q-145 0 -269 -72.5t-196.5 -196.5t-72.5 -269q0 -143 71.5 -266t193.5 -197t267 -74h553q-106 -111 -247.5 -171t-299.5 -60q-209 0 -385 103.5t-279.5 280.5 t-103.5 384q0 209 103.5 386t279.5 280.5t385 103.5q152 0 290 -57.5t249 -163.5q110 -109 169.5 -251.5zM904.5 632.5q17.5 18.5 17.5 43.5q0 39 -39 57q-12 4 -23 4q-16 0 -29 -6q-14 -8 -23 -22.5t-9 -32.5q0 -25 18.5 -43.5t42.5 -18.5q27 0 44.5 18.5z" glyph-name="at" horiz-adv-x="1720" unicode="@"/><glyph d="M432 184l-86 -184h-254l625 1348l594 -1348h-252l-82 184h-545zM711 788l-172 -372h335z" glyph-name="A" horiz-adv-x="1402" unicode="A"/><glyph d="M1155 412q0 -80 -35 -156t-98 -133q-66 -59 -154 -91t-186 -32h-514v1348h420q190 0 315 -113q57 -53 89 -123t32 -145q0 -104 -59 -193q-6 -12 -17 -22q76 -45 127 -111q80 -104 80 -229zM399 825h183q47 0 72.5 4.5t50.5 14.5l21 11q22 11 44.5 43t22.5 69q0 57 -45 98 q-53 51 -160 51h-189v-291zM926 412q0 49 -33 90t-78 59q-76 33 -194 33h-222v-365h283q115 0 184 64q60 53 60 119z" glyph-name="B" horiz-adv-x="1257" unicode="B"/><glyph d="M1067 55.5q-139 -67.5 -295 -67.5q-184 0 -341 93t-248 250.5t-91 344.5q0 186 91 344t248 250t341 92q143 0 275.5 -58.5t228.5 -166.5l-170 -154q-66 72 -153 111t-181 39q-123 0 -226.5 -61.5t-163.5 -167t-60 -228.5t60 -228.5t164.5 -168t225.5 -62.5 q102 0 193.5 45t156.5 125l181 -143q-97 -121 -236 -188.5z" glyph-name="C" horiz-adv-x="1394" unicode="C"/><glyph d="M855 53q-124 -53 -265 -53h-422v1348h422q141 0 265 -53.5t214 -153.5q84 -92 128 -213t44 -252q0 -133 -44 -254t-128 -215q-90 -101 -214 -154zM397 1116v-887h193q92 0 171 34t136 97q55 61 85 143.5t30 172.5q0 88 -30 169t-85 142q-113 129 -307 129h-193z" glyph-name="D" horiz-adv-x="1343" unicode="D"/><glyph d="M1020 0h-852v1348h852v-232h-621v-325h467v-232h-467v-330h621v-229z" glyph-name="E" horiz-adv-x="1185" unicode="E"/><glyph d="M397 0h-229v1348h850v-232h-621v-325h469v-232h-469v-559z" glyph-name="F" horiz-adv-x="1167" unicode="F"/><glyph d="M1276 743v-743h-506q-184 0 -339 91t-246 248t-91 341t91 341t246 249t339 92q141 0 272.5 -57.5t225.5 -163.5l-170 -154q-63 70 -149.5 106.5t-178.5 36.5q-121 0 -223.5 -60t-162.5 -163.5t-60 -226.5t60 -226.5t162.5 -164t223.5 -60.5h277v285h-322v229h551z" glyph-name="G" horiz-adv-x="1445" unicode="G"/><glyph d="M963 0v559h-564v-559h-229v1348h229v-557h564v557h229l2 -1348h-231z" glyph-name="H" horiz-adv-x="1363" unicode="H"/><glyph d="M422 0h-232v1348h232v-1348z" glyph-name="I" horiz-adv-x="612" unicode="I"/><glyph d="M720 34q-99 -46 -214 -46q-143 0 -263 79.5t-192 219.5l207 102q39 -82 104.5 -127t143.5 -45q139 0 221 114.5t82 309.5v707h229v-707q0 -297 -149 -475q-70 -86 -169 -132z" glyph-name="J" horiz-adv-x="1196" unicode="J"/><glyph d="M1200 0h-285l-366 500l-381 -531v1379h229v-660l475 660h283l-467 -650z" glyph-name="K" horiz-adv-x="1302" unicode="K"/><glyph d="M1020 0h-852v1348h231v-1119h621v-229z" glyph-name="L" horiz-adv-x="1167" unicode="L"/><glyph d="M1554 0h-229v649l-461 -643l-465 645v-651h-229v1368l694 -967l690 967v-1368z" glyph-name="M" horiz-adv-x="1724" unicode="M"/><glyph d="M1231 -31l-832 832v-801h-229v1368l831 -831v811h230v-1379z" glyph-name="N" unicode="N"/><glyph d="M1115 80q-157 -92 -341 -92t-341 92t-249 249.5t-92 344.5q0 186 92 344t249 250t341 92t341 -92t249 -250t92 -344t-92 -344t-249 -250zM1000.5 1069q-103.5 61 -226.5 61t-226.5 -61t-163.5 -166.5t-60 -228.5t60 -228.5t163.5 -167t226.5 -61.5t226.5 61.5t164 166 t60.5 229.5t-60.5 229.5t-164 165.5z" glyph-name="O" horiz-adv-x="1548" unicode="O"/><glyph d="M399 0h-231v1348h115h387q90 0 173 -30t148 -85q68 -59 105 -136t37 -161q0 -86 -37 -162t-105 -137q-66 -55 -148.5 -85t-172.5 -30h-273zM397 1116v-362h273q104 0 170 59q61 49 61 123q0 72 -61 123q-68 57 -170 57h-273z" glyph-name="P" horiz-adv-x="1245" unicode="P"/><glyph d="M1223 0l-88 92q-166 -104 -361 -104q-184 0 -341 92t-249 249.5t-92 344.5q0 186 92 344t249 250t341 92t341 -92t248 -250t91 -344q0 -119 -39 -228.5t-108 -199.5l231 -246h-315zM973 266l-301 322l170 157l305 -327q78 117 78 256q0 123 -60.5 228.5t-164 166.5 t-226.5 61t-227.5 -61t-164.5 -165.5t-60 -229.5t60 -229.5t164.5 -166t227.5 -61.5q105 0 199 49z" glyph-name="Q" horiz-adv-x="1640" unicode="Q"/><glyph d="M852 0l-453 594v-594h-229l-2 1348h494q98 0 185 -32t152 -91q66 -57 101 -132t35 -157q0 -125 -80 -229q-70 -88 -172 -127q-37 -14 -85 -24.5t-71 -10.5l410 -545h-285zM399 1116v-362h201q121 0 193 32q45 18 77.5 59.5t32.5 90.5q0 68 -57 119q-68 61 -184 61h-263z " glyph-name="R" horiz-adv-x="1259" unicode="R"/><glyph d="M1084.5 575.5q58.5 -88.5 58.5 -188.5q0 -84 -42 -160.5t-120 -134.5q-70 -51 -159 -78.5t-185 -27.5t-185.5 27.5t-158.5 78.5q-98 72 -135 172l204 117q2 -33 23 -59.5t45 -42.5q41 -29 95.5 -45.5t111.5 -16.5t111.5 16.5t95.5 45.5q68 51 67 108q0 37 -26.5 72 t-71.5 59q-43 25 -192 43q-168 18 -254 60q-111 51 -172.5 143t-61.5 199q0 84 42 160.5t118 133.5q70 51 159 79t185 28t185 -27.5t159 -79.5q98 -72 137 -174l-207 -118q-2 57 -67 106q-41 29 -95.5 45.5t-111.5 16.5t-111.5 -16.5t-95.5 -45.5q-68 -51 -68 -108 q0 -39 29 -77t80 -59q33 -14 78 -22t104 -17q182 -23 271 -67q102 -57 160.5 -145.5z" glyph-name="S" horiz-adv-x="1286" unicode="S"/><glyph d="M1139 1348v-232h-406v-1116h-229v1116h-404v232h1039z" glyph-name="T" horiz-adv-x="1239" unicode="T"/><glyph d="M904 29q-97 -41 -204 -41q-109 0 -206 41t-170 116q-76 78 -116 176.5t-40 204.5v822h231v-822q0 -63 22.5 -119.5t65.5 -99.5q90 -90 213 -90q59 0 114.5 23.5t96.5 66.5q43 43 65.5 99.5t22.5 119.5v822h232v-822q0 -106 -40 -204.5t-114 -176.5q-76 -75 -173 -116z " glyph-name="U" unicode="U"/><glyph d="M696 539l359 809h252l-611 -1379l-610 1379h250z" glyph-name="V" unicode="V"/><glyph d="M1235 618l244 730h243l-460 -1379l-353 811l-352 -811l-465 1379h244l246 -734l327 754z" glyph-name="W" horiz-adv-x="1814" unicode="W"/><glyph d="M1266 0h-273l-309 467l-309 -467h-273l445 676l-443 672h275l305 -465l307 465h275l-445 -672z" glyph-name="X" horiz-adv-x="1368" unicode="X"/><glyph d="M764 694l405 654h277l-567 -897v-451h-230v451l-561 897h274z" glyph-name="Y" horiz-adv-x="1533" unicode="Y"/><glyph d="M1112 0h-958l581 1116h-579v232h958l-582 -1119h580v-229z" glyph-name="Z" horiz-adv-x="1267" unicode="Z"/><glyph d="M518 0h-375v1348h375v-232h-145v-885h145v-231z" glyph-name="bracketleft" horiz-adv-x="661" unicode="["/><glyph d="M391 1348l795 -1348h-268l-795 1348h268z" glyph-name="backslash" horiz-adv-x="1308" unicode="\"/><glyph d="M518 0h-375v231h144v885h-144v232h375v-1348z" glyph-name="bracketright" horiz-adv-x="661" unicode="]"/><glyph d="M307 756l-164 162l471 471l471 -469l-163 -164l-308 307z" glyph-name="asciicircum" horiz-adv-x="1228" unicode="^"/><glyph d="M1417 0h-1294v229h1294v-229z" glyph-name="underscore" horiz-adv-x="1540" unicode="_"/><glyph d="M432 184l-86 -184h-254l625 1348l594 -1348h-252l-82 184h-545zM711 788l-172 -372h335z" glyph-name="a" horiz-adv-x="1402" unicode="a"/><glyph d="M1155 412q0 -80 -35 -156t-98 -133q-66 -59 -154 -91t-186 -32h-514v1348h420q190 0 315 -113q57 -53 89 -123t32 -145q0 -104 -59 -193q-6 -12 -17 -22q76 -45 127 -111q80 -104 80 -229zM399 825h183q47 0 72.5 4.5t50.5 14.5l21 11q22 11 44.5 43t22.5 69q0 57 -45 98 q-53 51 -160 51h-189v-291zM926 412q0 49 -33 90t-78 59q-76 33 -194 33h-222v-365h283q115 0 184 64q60 53 60 119z" glyph-name="b" horiz-adv-x="1257" unicode="b"/><glyph d="M1067 55.5q-139 -67.5 -295 -67.5q-184 0 -341 93t-248 250.5t-91 344.5q0 186 91 344t248 250t341 92q143 0 275.5 -58.5t228.5 -166.5l-170 -154q-66 72 -153 111t-181 39q-123 0 -226.5 -61.5t-163.5 -167t-60 -228.5t60 -228.5t164.5 -168t225.5 -62.5 q102 0 193.5 45t156.5 125l181 -143q-97 -121 -236 -188.5z" glyph-name="c" horiz-adv-x="1394" unicode="c"/><glyph d="M855 53q-124 -53 -265 -53h-422v1348h422q141 0 265 -53.5t214 -153.5q84 -92 128 -213t44 -252q0 -133 -44 -254t-128 -215q-90 -101 -214 -154zM397 1116v-887h193q92 0 171 34t136 97q55 61 85 143.5t30 172.5q0 88 -30 169t-85 142q-113 129 -307 129h-193z" glyph-name="d" horiz-adv-x="1343" unicode="d"/><glyph d="M1020 0h-852v1348h852v-232h-621v-325h467v-232h-467v-330h621v-229z" glyph-name="e" horiz-adv-x="1185" unicode="e"/><glyph d="M397 0h-229v1348h850v-232h-621v-325h469v-232h-469v-559z" glyph-name="f" horiz-adv-x="1167" unicode="f"/><glyph d="M1276 743v-743h-506q-184 0 -339 91t-246 248t-91 341t91 341t246 249t339 92q141 0 272.5 -57.5t225.5 -163.5l-170 -154q-63 70 -149.5 106.5t-178.5 36.5q-121 0 -223.5 -60t-162.5 -163.5t-60 -226.5t60 -226.5t162.5 -164t223.5 -60.5h277v285h-322v229h551z" glyph-name="g" horiz-adv-x="1445" unicode="g"/><glyph d="M963 0v559h-564v-559h-229v1348h229v-557h564v557h229l2 -1348h-231z" glyph-name="h" horiz-adv-x="1363" unicode="h"/><glyph d="M422 0h-232v1348h232v-1348z" glyph-name="i" horiz-adv-x="612" unicode="i"/><glyph d="M720 34q-99 -46 -214 -46q-143 0 -263 79.5t-192 219.5l207 102q39 -82 104.5 -127t143.5 -45q139 0 221 114.5t82 309.5v707h229v-707q0 -297 -149 -475q-70 -86 -169 -132z" glyph-name="j" horiz-adv-x="1196" unicode="j"/><glyph d="M1200 0h-285l-366 500l-381 -531v1379h229v-660l475 660h283l-467 -650z" glyph-name="k" horiz-adv-x="1302" unicode="k"/><glyph d="M1020 0h-852v1348h231v-1119h621v-229z" glyph-name="l" horiz-adv-x="1167" unicode="l"/><glyph d="M1554 0h-229v649l-461 -643l-465 645v-651h-229v1368l694 -967l690 967v-1368z" glyph-name="m" horiz-adv-x="1724" unicode="m"/><glyph d="M1231 -31l-832 832v-801h-229v1368l831 -831v811h230v-1379z" glyph-name="n" unicode="n"/><glyph d="M1115 80q-157 -92 -341 -92t-341 92t-249 249.5t-92 344.5q0 186 92 344t249 250t341 92t341 -92t249 -250t92 -344t-92 -344t-249 -250zM1000.5 1069q-103.5 61 -226.5 61t-226.5 -61t-163.5 -166.5t-60 -228.5t60 -228.5t163.5 -167t226.5 -61.5t226.5 61.5t164 166 t60.5 229.5t-60.5 229.5t-164 165.5z" glyph-name="o" horiz-adv-x="1548" unicode="o"/><glyph d="M399 0h-231v1348h115h387q90 0 173 -30t148 -85q68 -59 105 -136t37 -161q0 -86 -37 -162t-105 -137q-66 -55 -148.5 -85t-172.5 -30h-273zM397 1116v-362h273q104 0 170 59q61 49 61 123q0 72 -61 123q-68 57 -170 57h-273z" glyph-name="p" horiz-adv-x="1245" unicode="p"/><glyph d="M1223 0l-88 92q-166 -104 -361 -104q-184 0 -341 92t-249 249.5t-92 344.5q0 186 92 344t249 250t341 92t341 -92t248 -250t91 -344q0 -119 -39 -228.5t-108 -199.5l231 -246h-315zM973 266l-301 322l170 157l305 -327q78 117 78 256q0 123 -60.5 228.5t-164 166.5 t-226.5 61t-227.5 -61t-164.5 -165.5t-60 -229.5t60 -229.5t164.5 -166t227.5 -61.5q105 0 199 49z" glyph-name="q" horiz-adv-x="1640" unicode="q"/><glyph d="M852 0l-453 594v-594h-229l-2 1348h494q98 0 185 -32t152 -91q66 -57 101 -132t35 -157q0 -125 -80 -229q-70 -88 -172 -127q-37 -14 -85 -24.5t-71 -10.5l410 -545h-285zM399 1116v-362h201q121 0 193 32q45 18 77.5 59.5t32.5 90.5q0 68 -57 119q-68 61 -184 61h-263z " glyph-name="r" horiz-adv-x="1259" unicode="r"/><glyph d="M1084.5 575.5q58.5 -88.5 58.5 -188.5q0 -84 -42 -160.5t-120 -134.5q-70 -51 -159 -78.5t-185 -27.5t-185.5 27.5t-158.5 78.5q-98 72 -135 172l204 117q2 -33 23 -59.5t45 -42.5q41 -29 95.5 -45.5t111.5 -16.5t111.5 16.5t95.5 45.5q68 51 67 108q0 37 -26.5 72 t-71.5 59q-43 25 -192 43q-168 18 -254 60q-111 51 -172.5 143t-61.5 199q0 84 42 160.5t118 133.5q70 51 159 79t185 28t185 -27.5t159 -79.5q98 -72 137 -174l-207 -118q-2 57 -67 106q-41 29 -95.5 45.5t-111.5 16.5t-111.5 -16.5t-95.5 -45.5q-68 -51 -68 -108 q0 -39 29 -77t80 -59q33 -14 78 -22t104 -17q182 -23 271 -67q102 -57 160.5 -145.5z" glyph-name="s" horiz-adv-x="1286" unicode="s"/><glyph d="M1139 1348v-232h-406v-1116h-229v1116h-404v232h1039z" glyph-name="t" horiz-adv-x="1239" unicode="t"/><glyph d="M904 29q-97 -41 -204 -41q-109 0 -206 41t-170 116q-76 78 -116 176.5t-40 204.5v822h231v-822q0 -63 22.5 -119.5t65.5 -99.5q90 -90 213 -90q59 0 114.5 23.5t96.5 66.5q43 43 65.5 99.5t22.5 119.5v822h232v-822q0 -106 -40 -204.5t-114 -176.5q-76 -75 -173 -116z " glyph-name="u" unicode="u"/><glyph d="M696 539l359 809h252l-611 -1379l-610 1379h250z" glyph-name="v" unicode="v"/><glyph d="M1235 618l244 730h243l-460 -1379l-353 811l-352 -811l-465 1379h244l246 -734l327 754z" glyph-name="w" horiz-adv-x="1814" unicode="w"/><glyph d="M1266 0h-273l-309 467l-309 -467h-273l445 676l-443 672h275l305 -465l307 465h275l-445 -672z" glyph-name="x" horiz-adv-x="1368" unicode="x"/><glyph d="M764 694l405 654h277l-567 -897v-451h-230v451l-561 897h274z" glyph-name="y" horiz-adv-x="1533" unicode="y"/><glyph d="M1112 0h-958l581 1116h-579v232h958l-582 -1119h580v-229z" glyph-name="z" horiz-adv-x="1267" unicode="z"/><glyph d="M518 292q31 -36 80 -59v-241q-150 35 -245 139.5t-95 235.5v190l-115 121l115 123v184q0 131 94 236.5t246 140.5v-242q-49 -23 -80 -59.5t-31 -75.5v-205q0 -47 -34 -100q35 -51 34 -102v-211q0 -39 31 -75z" glyph-name="braceleft" horiz-adv-x="741" unicode="{"/><glyph d="M416 0h-232v1348h232v-1348z" glyph-name="bar" horiz-adv-x="600" unicode="|"/><glyph d="M224.5 291q29.5 37 29.5 76v211q0 51 35 102q-35 53 -35 100v205q0 41 -29.5 78t-81.5 57v242q152 -35 247 -140.5t95 -236.5v-184l115 -123l-115 -121v-190q0 -131 -95 -235.5t-247 -139.5v241q52 21 81.5 58z" glyph-name="braceright" horiz-adv-x="743" unicode="}"/><glyph d="M369.5 1151q-33.5 -35 -80.5 -35t-81 35t-34 82t34 81t81 34t80.5 -34t33.5 -81t-33.5 -82zM174 0v229l29 789h170l30 -789v-229h-229z" glyph-name="exclamdown" horiz-adv-x="577" unicode="¡"/><glyph d="M1114.5 81.5q-108.5 -63.5 -231.5 -83.5v-199h-230v201q-158 29 -285.5 125t-201.5 240.5t-74 310.5t74 309t202 239.5t285 125.5v200h230v-198q113 -18 214 -73.5t179 -141.5l-172 -154q-63 70 -149.5 108.5t-182.5 38.5q-121 0 -224.5 -61t-163.5 -165.5t-60 -227.5 q0 -125 60 -229.5t162.5 -166t225.5 -61.5q102 0 194.5 44t155.5 126l181 -143q-80 -101 -188.5 -164.5z" glyph-name="cent" horiz-adv-x="1394" unicode="¢"/><glyph d="M1057 229v-229h-891v229h51q61 0 115.5 31t87.5 77t33 91l-2 143h-218v230h218v139q0 80 36.5 158t104.5 141t150.5 96t172.5 33h107v-229h-107q-53 0 -107 -28t-90 -74t-36 -97v-139h205v-230h-205v-143q0 -102 -59 -199h434z" glyph-name="sterling" horiz-adv-x="1222" unicode="£"/><glyph d="M671.5 724q-65.5 -32 -139.5 -32q-88 0 -161.5 44t-116.5 119t-43 163t43 161.5t116.5 117.5t161.5 44q68 0 131.5 -27.5t108.5 -78.5l-172 -154q-27 31 -68 31q-39 0 -65.5 -27.5t-26.5 -66.5t27 -66.5t65 -27.5q43 0 72 34l180 -143q-47 -59 -112.5 -91zM737 665.5 q-94 -55.5 -205 -55.5t-205 55.5t-149 149.5t-55 205t55 205t149.5 149.5t204.5 55.5q111 0 205 -55.5t149.5 -150t55.5 -204.5q0 -111 -55.5 -205t-149.5 -149.5zM719 1342.5q-86 50.5 -187 50.5q-100 0 -186 -50.5t-136 -136.5t-50 -186t50 -186t136 -136.5t186 -50.5 t186.5 50.5t136.5 136.5t50 186t-50 186t-136 136.5z" glyph-name="copyright" horiz-adv-x="1064" unicode="©"/><glyph d="M868 434v-284l-725 526l725 520v-283l-331 -239zM1464 434v-284l-723 524l723 522v-283l-331 -239z" glyph-name="guillemotleft" horiz-adv-x="1607" unicode="«"/><glyph d="M577.5 852q-69.5 -41 -151.5 -41t-151.5 41t-110.5 111.5t-41 152.5t41 152.5t110.5 111.5t151.5 41t151.5 -41t110.5 -111.5t41 -152.5t-41 -152.5t-110.5 -111.5zM478.5 1169.5q-21.5 22.5 -52.5 22.5t-52.5 -22.5t-21.5 -53.5t21.5 -52.5t52.5 -21.5t52.5 21.5 t21.5 52.5t-21.5 53.5z" glyph-name="degree" horiz-adv-x="851" unicode="°"/><glyph d="M143 918v282l723 -524l-723 -522v284l330 238zM739 915v285l723 -524l-723 -522v282l332 240z" glyph-name="guillemotright" horiz-adv-x="1605" unicode="»"/><glyph d="M549 979v51h199v-51q0 -123 -44.5 -189.5t-119.5 -125.5l-47 -39q-74 -59 -109 -105.5t-35 -109.5q0 -74 64 -131q74 -61 176 -62q104 0 178 62q63 57 63 131h230q0 -86 -39 -170q-35 -74 -104 -134q-66 -57 -151 -87.5t-177 -30.5t-176 30.5t-150 87.5q-68 55 -104 134 q-39 78 -39 170q0 96 36 170.5t81 122t110 100.5l49 39l39 28q39 29 54.5 49.5t15.5 59.5zM715 1162q-33 -34 -80 -34t-82 34t-35 81t35 82t82 35q45 0 79 -35t34 -82t-33 -81z" glyph-name="questiondown" horiz-adv-x="1226" unicode="¿"/><glyph d="M645 1470l-254 236h250l188 -236h-184zM432 184l-86 -184h-254l625 1348l594 -1348h-252l-82 184h-545zM711 788l-172 -372h335z" glyph-name="Agrave" horiz-adv-x="1402" unicode="À"/><glyph d="M625 1470l190 234h248l-254 -234h-184zM432 184l-86 -184h-254l625 1348l594 -1348h-252l-82 184h-545zM711 788l-172 -372h335z" glyph-name="Aacute" horiz-adv-x="1402" unicode="Á"/><glyph d="M1034 1470h-184l-129 117l-129 -117h-184l188 232h250zM432 184l-86 -184h-254l625 1348l594 -1348h-252l-82 184h-545zM711 788l-172 -372h335z" glyph-name="Acircumflex" horiz-adv-x="1402" unicode="Â"/><glyph d="M967 1507q-66 -37 -142 -37q-90 0 -168 58q-29 23 -61 22q-27 0 -53 -14q-23 -12 -38 -28q-15 -15 -20 -19l-147 110q-4 4 33 38t84 61q72 39 141 39q90 0 166 -58q37 -27 67 -26q23 0 45 16l62 49l147 -110q6 -4 -31 -39q-38 -35 -85 -62zM432 184l-86 -184h-254 l625 1348l594 -1348h-252l-82 184h-545zM711 788l-172 -372h335z" glyph-name="Atilde" horiz-adv-x="1402" unicode="Ã"/><glyph d="M433 1653q32 31 75 30q45 0 76 -30q31 -31 30 -76q0 -43 -30 -75q-31 -32 -76 -32q-43 0 -75 32t-32 75q0 45 32 76zM864 1653q31 31 76 30q45 0 76 -30q31 -31 31 -76q0 -43 -32 -75t-75 -32t-75 32t-31 75q-1 45 30 76zM432 184l-86 -184h-254l625 1348l594 -1348h-252 l-82 184h-545zM711 788l-172 -372h335z" glyph-name="Adieresis" horiz-adv-x="1402" unicode="Ä"/><glyph d="M882 1534q-62 -63 -151 -64q-90 0 -152 64q-62 63 -63 152q0 88 64 150q63 62 151 62t151 -62q62 -62 62 -150q0 -89 -62 -152zM752 1706q-8 8 -21 8q-12 0 -21 -8t-10 -20q0 -12 10 -22q9 -9 21 -9t21 9q8 9 8 22q0 12 -8 20zM432 184l-86 -184h-254l625 1348l594 -1348 h-252l-82 184h-545zM711 788l-172 -372h335z" glyph-name="Aring" horiz-adv-x="1402" unicode="Å"/><glyph d="M1667 1118h-620v-327h466v-230h-466v-330h620v-231h-852v219h-366l-103 -219h-254l625 1348h950v-230zM555 451h260v565z" glyph-name="AE" horiz-adv-x="1832" unicode="Æ"/><glyph d="M1067 55.5q139 67.5 236 188.5l-181 143q-66 -80 -157 -125t-193 -45q-121 0 -225.5 62.5t-164.5 168t-60 228.5t60 228.5t163.5 167t226.5 61.5q94 0 181 -39t153 -111l170 154q-96 109 -228.5 167t-275.5 58q-184 0 -341 -92t-248 -250t-91 -344t91 -344t248 -251 t341 -93q156 0 295 67.5zM942 -311q-70 -57 -168 -58q-47 0 -91 15.5t-77 42.5q-39 31 -59.5 71.5t-20.5 87.5h174q0 -14 21.5 -28.5t52.5 -14.5t52.5 14.5t21.5 28.5t-21.5 27.5t-52.5 13.5h-86v193h174v-31q49 -16 80 -43q39 -31 59.5 -72.5t20.5 -87.5q0 -47 -20.5 -87.5 t-59.5 -71.5z" glyph-name="Ccedilla" horiz-adv-x="1394" unicode="Ç"/><glyph d="M514 1470l-254 236h250l188 -236h-184zM1020 0h-852v1348h852v-232h-621v-325h467v-232h-467v-330h621v-229z" glyph-name="Egrave" horiz-adv-x="1185" unicode="È"/><glyph d="M502 1470l190 234h248l-254 -234h-184zM1020 0h-852v1348h852v-232h-621v-325h467v-232h-467v-330h621v-229z" glyph-name="Eacute" horiz-adv-x="1185" unicode="É"/><glyph d="M911 1470h-184l-129 117l-129 -117h-184l188 232h250zM1020 0h-852v1348h852v-232h-621v-325h467v-232h-467v-330h621v-229z" glyph-name="Ecircumflex" horiz-adv-x="1185" unicode="Ê"/><glyph d="M310 1653q32 31 75 30q45 0 76 -30q31 -31 31 -76q0 -43 -31 -75t-76 -32q-43 0 -75 32t-31 75q-1 45 31 76zM741 1653q31 31 76 30q45 0 76 -30q31 -31 31 -76q0 -43 -32 -75t-75 -32t-75 32t-31 75q-1 45 30 76zM1020 0h-852v1348h852v-232h-621v-325h467v-232h-467 v-330h621v-229z" glyph-name="Edieresis" horiz-adv-x="1185" unicode="Ë"/><glyph d="M434 0h-231v1348h231v-1348zM213 1470l-254 236h250l188 -236h-184z" glyph-name="Igrave" horiz-adv-x="624" unicode="Ì"/><glyph d="M422 0h-232v1348h232v-1348zM215 1470l191 234h247l-254 -234h-184z" glyph-name="Iacute" horiz-adv-x="612" unicode="Í"/><glyph d="M422 0h-232v1348h232v-1348zM621 1470h-185l-129 117l-129 -117h-184l188 232h250z" glyph-name="Icircumflex" horiz-adv-x="614" unicode="Î"/><glyph d="M420 0h-232v1348h232v-1348zM15.5 1652.5q31.5 30.5 74.5 30.5q45 0 76 -30.5t31 -75.5q0 -43 -31 -75t-76 -32q-43 0 -74.5 32t-31.5 75q0 45 31.5 75.5zM446.5 1652.5q30.5 30.5 75.5 30.5t76 -30.5t31 -75.5q0 -43 -32 -75t-75 -32t-74.5 32t-31.5 75q0 45 30.5 75.5z " glyph-name="Idieresis" horiz-adv-x="612" unicode="Ï"/><glyph d="M1336 928q44 -121 44 -252q0 -133 -44 -254t-128 -215q-90 -100 -214 -153.5t-267 -53.5h-420v559h-139v229h139v560h420q143 0 267 -53.5t214 -153.5q84 -92 128 -213zM1121.5 504q29.5 82 29.5 172q0 88 -29.5 169t-85.5 142q-55 63 -135 96t-174 33h-190v-328h356 v-229h-356v-330h190q92 0 171 34t138 97q56 62 85.5 144z" glyph-name="Eth" horiz-adv-x="1482" unicode="Ð"/><glyph d="M946 1507q-66 -37 -141 -37q-90 0 -168 58q-29 23 -62 22q-27 0 -53 -14q-23 -12 -38 -28l-19 -19l-148 110q-4 4 33 38t84 61q72 39 141 39q90 0 166 -58q37 -27 68 -26q23 0 45 16l61 49l148 -110q6 -4 -32 -39t-85 -62zM1231 -31l-832 832v-801h-229v1368l831 -831 v811h230v-1379z" glyph-name="Ntilde" unicode="Ñ"/><glyph d="M678 1470l-254 236h250l188 -236h-184zM1115 80q-157 -92 -341 -92t-341 92t-249 250t-92 344t92 344t249 250t341 92t341 -92t249 -250t92 -344t-92 -344t-249 -250zM1000 1069q-103 61 -226 61t-226 -61t-164 -167q-60 -105 -60 -228t60 -229q60 -105 164 -166 q103 -61 226 -62q123 0 226 62q103 61 164 165q60 104 61 230q0 125 -61 229q-61 105 -164 166z" glyph-name="Ograve" horiz-adv-x="1548" unicode="Ò"/><glyph d="M680 1470l190 234h248l-254 -234h-184zM1115 80q-157 -92 -341 -92t-341 92t-249 250t-92 344t92 344t249 250t341 92t341 -92t249 -250t92 -344t-92 -344t-249 -250zM1000 1069q-103 61 -226 61t-226 -61t-164 -167q-60 -105 -60 -228t60 -229q60 -105 164 -166 q103 -61 226 -62q123 0 226 62q103 61 164 165q60 104 61 230q0 125 -61 229q-61 105 -164 166z" glyph-name="Oacute" horiz-adv-x="1548" unicode="Ó"/><glyph d="M1090 1470h-185l-129 117l-129 -117h-184l188 232h250zM1115 80q-157 -92 -341 -92t-341 92t-249 250t-92 344t92 344t249 250t341 92t341 -92t249 -250t92 -344t-92 -344t-249 -250zM1000 1069q-103 61 -226 61t-226 -61t-164 -167q-60 -105 -60 -228t60 -229 q60 -105 164 -166q103 -61 226 -62q123 0 226 62q103 61 164 165q60 104 61 230q0 125 -61 229q-61 105 -164 166z" glyph-name="Ocircumflex" horiz-adv-x="1548" unicode="Ô"/><glyph d="M1014 1507q-66 -37 -142 -37q-90 0 -167 58q-29 23 -62 22q-27 0 -53 -14q-23 -12 -38 -28q-15 -15 -20 -19l-147 110q-4 4 33 38t84 61q72 39 141 39q90 0 166 -58q37 -27 68 -26q23 0 45 16l61 49l147 -110q6 -4 -31 -39q-38 -35 -85 -62zM1115 80q-157 -92 -341 -92 t-341 92t-249 250t-92 344t92 344t249 250t341 92t341 -92t249 -250t92 -344t-92 -344t-249 -250zM1000 1069q-103 61 -226 61t-226 -61t-164 -167q-60 -105 -60 -228t60 -229q60 -105 164 -166q103 -61 226 -62q123 0 226 62q103 61 164 165q60 104 61 230q0 125 -61 229 q-61 105 -164 166z" glyph-name="Otilde" horiz-adv-x="1548" unicode="Õ"/><glyph d="M478 1653q32 31 75 30q45 0 76 -30q31 -31 30 -76q0 -43 -30 -75q-31 -32 -76 -32q-43 0 -75 32t-32 75q0 45 32 76zM909 1653q31 31 76 30q45 0 76 -30q31 -31 31 -76q0 -43 -32 -75t-75 -32t-75 32t-31 75q-1 45 30 76zM1115 80q-157 -92 -341 -92t-341 92t-249 250 t-92 344t92 344t249 250t341 92t341 -92t249 -250t92 -344t-92 -344t-249 -250zM1000 1069q-103 61 -226 61t-226 -61t-164 -167q-60 -105 -60 -228t60 -229q60 -105 164 -166q103 -61 226 -62q123 0 226 62q103 61 164 165q60 104 61 230q0 125 -61 229q-61 105 -164 166z " glyph-name="Odieresis" horiz-adv-x="1548" unicode="Ö"/><glyph d="M799 850l-176 -174l176 -174l-164 -164l-174 174l-176 -174l-162 162l176 176l-176 174l162 164l176 -176l174 176z" glyph-name="multiply" horiz-adv-x="921" unicode="×"/><glyph d="M1392.5 966.5q63.5 -135.5 63.5 -288.5q0 -186 -92 -344t-249 -250t-341 -92q-123 0 -242 45l-20 -37h-268l90 154q-113 96 -177.5 233t-64.5 291q0 186 92 344t249 250t341 92q127 0 246 -45l18 29h267l-86 -150q110 -96 173.5 -231.5zM358.5 502q34.5 -84 96.5 -146 l446 760q-61 18 -127 19q-123 0 -226.5 -61.5t-163.5 -166t-60 -229.5q0 -92 34.5 -176zM1000.5 282.5q103.5 61.5 164 167t60.5 228.5q0 90 -34 172t-93 145l-445 -755q55 -18 121 -19q123 0 226.5 61.5z" glyph-name="Oslash" horiz-adv-x="1548" unicode="Ø"/><glyph d="M612 1470l-254 236h250l189 -236h-185zM904 29q-97 -41 -204 -41q-109 0 -205 41q-97 41 -171 116q-76 78 -116 177q-40 98 -40 204v822h231v-822q0 -63 23 -119t65 -100q90 -90 213 -90q59 0 115 24q55 24 96 66q43 43 66 100q23 56 22 119v822h232v-822 q0 -106 -40 -204t-114 -177q-76 -75 -173 -116z" glyph-name="Ugrave" unicode="Ù"/><glyph d="M600 1470l191 234h247l-254 -234h-184zM904 29q-97 -41 -204 -41q-109 0 -205 41q-97 41 -171 116q-76 78 -116 177q-40 98 -40 204v822h231v-822q0 -63 23 -119t65 -100q90 -90 213 -90q59 0 115 24q55 24 96 66q43 43 66 100q23 56 22 119v822h232v-822 q0 -106 -40 -204t-114 -177q-76 -75 -173 -116z" glyph-name="Uacute" unicode="Ú"/><glyph d="M1012 1470h-185l-129 117l-129 -117h-184l188 232h250zM904 29q-97 -41 -204 -41q-109 0 -205 41q-97 41 -171 116q-76 78 -116 177q-40 98 -40 204v822h231v-822q0 -63 23 -119t65 -100q90 -90 213 -90q59 0 115 24q55 24 96 66q43 43 66 100q23 56 22 119v822h232v-822 q0 -106 -40 -204t-114 -177q-76 -75 -173 -116z" glyph-name="Ucircumflex" unicode="Û"/><glyph d="M409 1653q32 31 74 30q45 0 76 -30q31 -31 31 -76q0 -43 -31 -75t-76 -32q-43 0 -74 32q-32 32 -32 75q0 45 32 76zM840 1653q31 31 75 30q45 0 76 -30q31 -31 31 -76q0 -43 -32 -75t-75 -32t-74 32q-32 32 -32 75q0 45 31 76zM904 29q-97 -41 -204 -41q-109 0 -205 41 q-97 41 -171 116q-76 78 -116 177q-40 98 -40 204v822h231v-822q0 -63 23 -119t65 -100q90 -90 213 -90q59 0 115 24q55 24 96 66q43 43 66 100q23 56 22 119v822h232v-822q0 -106 -40 -204t-114 -177q-76 -75 -173 -116z" glyph-name="Udieresis" unicode="Ü"/><glyph d="M696 1470l191 234h248l-254 -234h-185zM764 694l405 654h277l-567 -897v-451h-230v451l-561 897h274z" glyph-name="Yacute" horiz-adv-x="1533" unicode="Ý"/><glyph d="M1157 412q0 -80 -36 -156t-99 -133q-66 -59 -153 -91t-185 -32h-102v229h102q115 0 184 64q57 51 58 119q0 49 -33 90t-78 59q-72 33 -192 33h-41v231q68 4 112.5 46t44.5 100q0 59 -50 101t-120 42t-119 -41t-51 -100v-973h-231l2 971q0 76 31.5 145.5t89.5 122.5 q55 51 128 77.5t150 26.5q78 0 150 -26.5t129 -77.5q57 -53 89 -122.5t32 -145.5q0 -109 -60 -199q102 -47 166 -131q82 -104 82 -229z" glyph-name="germandbls" horiz-adv-x="1259" unicode="ß"/><glyph d="M645 1470l-254 236h250l188 -236h-184zM432 184l-86 -184h-254l625 1348l594 -1348h-252l-82 184h-545zM711 788l-172 -372h335z" glyph-name="agrave" horiz-adv-x="1402" unicode="à"/><glyph d="M625 1470l190 234h248l-254 -234h-184zM432 184l-86 -184h-254l625 1348l594 -1348h-252l-82 184h-545zM711 788l-172 -372h335z" glyph-name="aacute" horiz-adv-x="1402" unicode="á"/><glyph d="M1034 1470h-184l-129 117l-129 -117h-184l188 232h250zM432 184l-86 -184h-254l625 1348l594 -1348h-252l-82 184h-545zM711 788l-172 -372h335z" glyph-name="acircumflex" horiz-adv-x="1402" unicode="â"/><glyph d="M967 1507q-66 -37 -142 -37q-90 0 -168 58q-29 23 -61 22q-27 0 -53 -14q-23 -12 -38 -28q-15 -15 -20 -19l-147 110q-4 4 33 38t84 61q72 39 141 39q90 0 166 -58q37 -27 67 -26q23 0 45 16l62 49l147 -110q6 -4 -31 -39q-38 -35 -85 -62zM432 184l-86 -184h-254 l625 1348l594 -1348h-252l-82 184h-545zM711 788l-172 -372h335z" glyph-name="atilde" horiz-adv-x="1402" unicode="ã"/><glyph d="M433 1653q32 31 75 30q45 0 76 -30q31 -31 30 -76q0 -43 -30 -75q-31 -32 -76 -32q-43 0 -75 32t-32 75q0 45 32 76zM864 1653q31 31 76 30q45 0 76 -30q31 -31 31 -76q0 -43 -32 -75t-75 -32t-75 32t-31 75q-1 45 30 76zM432 184l-86 -184h-254l625 1348l594 -1348h-252 l-82 184h-545zM711 788l-172 -372h335z" glyph-name="adieresis" horiz-adv-x="1402" unicode="ä"/><glyph d="M882 1534q-62 -63 -151 -64q-90 0 -152 64q-62 63 -63 152q0 88 64 150q63 62 151 62t151 -62q62 -62 62 -150q0 -89 -62 -152zM752 1706q-8 8 -21 8q-12 0 -21 -8t-10 -20q0 -12 10 -22q9 -9 21 -9t21 9q8 9 8 22q0 12 -8 20zM432 184l-86 -184h-254l625 1348l594 -1348 h-252l-82 184h-545zM711 788l-172 -372h335z" glyph-name="aring" horiz-adv-x="1402" unicode="å"/><glyph d="M1667 1118h-620v-327h466v-230h-466v-330h620v-231h-852v219h-366l-103 -219h-254l625 1348h950v-230zM555 451h260v565z" glyph-name="ae" horiz-adv-x="1832" unicode="æ"/><glyph d="M1067 55.5q139 67.5 236 188.5l-181 143q-66 -80 -157 -125t-193 -45q-121 0 -225.5 62.5t-164.5 168t-60 228.5t60 228.5t163.5 167t226.5 61.5q94 0 181 -39t153 -111l170 154q-96 109 -228.5 167t-275.5 58q-184 0 -341 -92t-248 -250t-91 -344t91 -344t248 -251 t341 -93q156 0 295 67.5zM942 -311q-70 -57 -168 -58q-47 0 -91 15.5t-77 42.5q-39 31 -59.5 71.5t-20.5 87.5h174q0 -14 21.5 -28.5t52.5 -14.5t52.5 14.5t21.5 28.5t-21.5 27.5t-52.5 13.5h-86v193h174v-31q49 -16 80 -43q39 -31 59.5 -72.5t20.5 -87.5q0 -47 -20.5 -87.5 t-59.5 -71.5z" glyph-name="ccedilla" horiz-adv-x="1394" unicode="ç"/><glyph d="M514 1470l-254 236h250l188 -236h-184zM1020 0h-852v1348h852v-232h-621v-325h467v-232h-467v-330h621v-229z" glyph-name="egrave" horiz-adv-x="1185" unicode="è"/><glyph d="M502 1470l190 234h248l-254 -234h-184zM1020 0h-852v1348h852v-232h-621v-325h467v-232h-467v-330h621v-229z" glyph-name="eacute" horiz-adv-x="1185" unicode="é"/><glyph d="M911 1470h-184l-129 117l-129 -117h-184l188 232h250zM1020 0h-852v1348h852v-232h-621v-325h467v-232h-467v-330h621v-229z" glyph-name="ecircumflex" horiz-adv-x="1185" unicode="ê"/><glyph d="M310 1653q32 31 75 30q45 0 76 -30q31 -31 31 -76q0 -43 -31 -75t-76 -32q-43 0 -75 32t-31 75q-1 45 31 76zM741 1653q31 31 76 30q45 0 76 -30q31 -31 31 -76q0 -43 -32 -75t-75 -32t-75 32t-31 75q-1 45 30 76zM1020 0h-852v1348h852v-232h-621v-325h467v-232h-467 v-330h621v-229z" glyph-name="edieresis" horiz-adv-x="1185" unicode="ë"/><glyph d="M434 0h-231v1348h231v-1348zM213 1470l-254 236h250l188 -236h-184z" glyph-name="igrave" horiz-adv-x="624" unicode="ì"/><glyph d="M422 0h-232v1348h232v-1348zM215 1470l191 234h247l-254 -234h-184z" glyph-name="iacute" horiz-adv-x="612" unicode="í"/><glyph d="M424 0h-231v1348h231v-1348zM621 1470h-185l-129 117l-129 -117h-184l188 232h250z" glyph-name="icircumflex" horiz-adv-x="614" unicode="î"/><glyph d="M420 0h-232v1348h232v-1348zM15.5 1652.5q31.5 30.5 74.5 30.5q45 0 76 -30.5t31 -75.5q0 -43 -31 -75t-76 -32q-43 0 -74.5 32t-31.5 75q0 45 31.5 75.5zM446.5 1652.5q30.5 30.5 75.5 30.5t76 -30.5t31 -75.5q0 -43 -32 -75t-75 -32t-74.5 32t-31.5 75q0 45 30.5 75.5z " glyph-name="idieresis" horiz-adv-x="612" unicode="ï"/><glyph d="M946 1507q-66 -37 -141 -37q-90 0 -168 58q-29 23 -62 22q-27 0 -53 -14q-23 -12 -38 -28l-19 -19l-148 110q-4 4 33 38t84 61q72 39 141 39q90 0 166 -58q37 -27 68 -26q23 0 45 16l61 49l148 -110q6 -4 -32 -39t-85 -62zM1231 -31l-832 832v-801h-229v1368l831 -831 v811h230v-1379z" glyph-name="ntilde" unicode="ñ"/><glyph d="M678 1470l-254 236h250l188 -236h-184zM1115 80q-157 -92 -341 -92t-341 92t-249 250t-92 344t92 344t249 250t341 92t341 -92t249 -250t92 -344t-92 -344t-249 -250zM1000 1069q-103 61 -226 61t-226 -61t-164 -167q-60 -105 -60 -228t60 -229q60 -105 164 -166 q103 -61 226 -62q123 0 226 62q103 61 164 165q60 104 61 230q0 125 -61 229q-61 105 -164 166z" glyph-name="ograve" horiz-adv-x="1548" unicode="ò"/><glyph d="M680 1470l190 234h248l-254 -234h-184zM1115 80q-157 -92 -341 -92t-341 92t-249 250t-92 344t92 344t249 250t341 92t341 -92t249 -250t92 -344t-92 -344t-249 -250zM1000 1069q-103 61 -226 61t-226 -61t-164 -167q-60 -105 -60 -228t60 -229q60 -105 164 -166 q103 -61 226 -62q123 0 226 62q103 61 164 165q60 104 61 230q0 125 -61 229q-61 105 -164 166z" glyph-name="oacute" horiz-adv-x="1548" unicode="ó"/><glyph d="M1090 1470h-185l-129 117l-129 -117h-184l188 232h250zM1115 80q-157 -92 -341 -92t-341 92t-249 250t-92 344t92 344t249 250t341 92t341 -92t249 -250t92 -344t-92 -344t-249 -250zM1000 1069q-103 61 -226 61t-226 -61t-164 -167q-60 -105 -60 -228t60 -229 q60 -105 164 -166q103 -61 226 -62q123 0 226 62q103 61 164 165q60 104 61 230q0 125 -61 229q-61 105 -164 166z" glyph-name="ocircumflex" horiz-adv-x="1548" unicode="ô"/><glyph d="M1014 1507q-66 -37 -142 -37q-90 0 -167 58q-29 23 -62 22q-27 0 -53 -14q-23 -12 -38 -28q-15 -15 -20 -19l-147 110q-4 4 33 38t84 61q72 39 141 39q90 0 166 -58q37 -27 68 -26q23 0 45 16l61 49l147 -110q6 -4 -31 -39q-38 -35 -85 -62zM1115 80q-157 -92 -341 -92 t-341 92t-249 250t-92 344t92 344t249 250t341 92t341 -92t249 -250t92 -344t-92 -344t-249 -250zM1000 1069q-103 61 -226 61t-226 -61t-164 -167q-60 -105 -60 -228t60 -229q60 -105 164 -166q103 -61 226 -62q123 0 226 62q103 61 164 165q60 104 61 230q0 125 -61 229 q-61 105 -164 166z" glyph-name="otilde" horiz-adv-x="1548" unicode="õ"/><glyph d="M478 1653q32 31 75 30q45 0 76 -30q31 -31 30 -76q0 -43 -30 -75q-31 -32 -76 -32q-43 0 -75 32t-32 75q0 45 32 76zM909 1653q31 31 76 30q45 0 76 -30q31 -31 31 -76q0 -43 -32 -75t-75 -32t-75 32t-31 75q-1 45 30 76zM1115 80q-157 -92 -341 -92t-341 92t-249 250 t-92 344t92 344t249 250t341 92t341 -92t249 -250t92 -344t-92 -344t-249 -250zM1000 1069q-103 61 -226 61t-226 -61t-164 -167q-60 -105 -60 -228t60 -229q60 -105 164 -166q103 -61 226 -62q123 0 226 62q103 61 164 165q60 104 61 230q0 125 -61 229q-61 105 -164 166z " glyph-name="odieresis" horiz-adv-x="1548" unicode="ö"/><glyph d="M1392.5 966.5q63.5 -135.5 63.5 -288.5q0 -186 -92 -344t-249 -250t-341 -92q-123 0 -242 45l-20 -37h-268l90 154q-113 96 -177.5 233t-64.5 291q0 186 92 344t249 250t341 92q127 0 246 -45l18 29h267l-86 -150q110 -96 173.5 -231.5zM358.5 502q34.5 -84 96.5 -146 l446 760q-61 18 -127 19q-123 0 -226.5 -61.5t-163.5 -166t-60 -229.5q0 -92 34.5 -176zM1000.5 282.5q103.5 61.5 164 167t60.5 228.5q0 90 -34 172t-93 145l-445 -755q55 -18 121 -19q123 0 226.5 61.5z" glyph-name="oslash" horiz-adv-x="1548" unicode="ø"/><glyph d="M612 1470l-254 236h250l189 -236h-185zM904 29q-97 -41 -204 -41q-109 0 -205 41q-97 41 -171 116q-76 78 -116 177q-40 98 -40 204v822h231v-822q0 -63 23 -119t65 -100q90 -90 213 -90q59 0 115 24q55 24 96 66q43 43 66 100q23 56 22 119v822h232v-822 q0 -106 -40 -204t-114 -177q-76 -75 -173 -116z" glyph-name="ugrave" unicode="ù"/><glyph d="M600 1470l191 234h247l-254 -234h-184zM904 29q-97 -41 -204 -41q-109 0 -205 41q-97 41 -171 116q-76 78 -116 177q-40 98 -40 204v822h231v-822q0 -63 23 -119t65 -100q90 -90 213 -90q59 0 115 24q55 24 96 66q43 43 66 100q23 56 22 119v822h232v-822 q0 -106 -40 -204t-114 -177q-76 -75 -173 -116z" glyph-name="uacute" unicode="ú"/><glyph d="M1012 1470h-185l-129 117l-129 -117h-184l188 232h250zM904 29q-97 -41 -204 -41q-109 0 -205 41q-97 41 -171 116q-76 78 -116 177q-40 98 -40 204v822h231v-822q0 -63 23 -119t65 -100q90 -90 213 -90q59 0 115 24q55 24 96 66q43 43 66 100q23 56 22 119v822h232v-822 q0 -106 -40 -204t-114 -177q-76 -75 -173 -116z" glyph-name="ucircumflex" unicode="û"/><glyph d="M409 1653q32 31 74 30q45 0 76 -30q31 -31 31 -76q0 -43 -31 -75t-76 -32q-43 0 -74 32q-32 32 -32 75q0 45 32 76zM840 1653q31 31 75 30q45 0 76 -30q31 -31 31 -76q0 -43 -32 -75t-75 -32t-74 32q-32 32 -32 75q0 45 31 76zM904 29q-97 -41 -204 -41q-109 0 -205 41 q-97 41 -171 116q-76 78 -116 177q-40 98 -40 204v822h231v-822q0 -63 23 -119t65 -100q90 -90 213 -90q59 0 115 24q55 24 96 66q43 43 66 100q23 56 22 119v822h232v-822q0 -106 -40 -204t-114 -177q-76 -75 -173 -116z" glyph-name="udieresis" unicode="ü"/><glyph d="M696 1470l191 234h248l-254 -234h-185zM764 694l405 654h277l-567 -897v-451h-230v451l-561 897h274z" glyph-name="yacute" horiz-adv-x="1533" unicode="ý"/><glyph d="M478 1653q32 31 75 30q45 0 76 -30q31 -31 30 -76q0 -43 -30 -75q-31 -32 -76 -32q-43 0 -75 32t-32 75q0 45 32 76zM909 1653q31 31 76 30q45 0 76 -30q31 -31 31 -76q0 -43 -32 -75t-75 -32t-75 32t-31 75q-1 45 30 76zM764 694l405 654h277l-567 -897v-451h-230v451 l-561 897h274z" glyph-name="ydieresis" horiz-adv-x="1533" unicode="ÿ"/><glyph d="M1360 1116v-325h469v-232h-469v-330h622v-229h-852v92q-164 -102 -356 -102q-184 0 -341 92t-249 249.5t-92 344.5q0 186 92 344t249 250t341 92q190 0 356 -100v86h852v-232h-622zM974 267q93 48 156 130v557q-63 82 -156 130.5t-200 48.5q-123 0 -226.5 -61.5 t-163.5 -166t-60 -229.5t60 -229.5t163.5 -166t226.5 -61.5q107 0 200 48z" glyph-name="OE" horiz-adv-x="2148" unicode="Œ"/><glyph d="M1360 1116v-325h469v-232h-469v-330h622v-229h-852v92q-164 -102 -356 -102q-184 0 -341 92t-249 249.5t-92 344.5q0 186 92 344t249 250t341 92q190 0 356 -100v86h852v-232h-622zM974 267q93 48 156 130v557q-63 82 -156 130.5t-200 48.5q-123 0 -226.5 -61.5 t-163.5 -166t-60 -229.5t60 -229.5t163.5 -166t226.5 -61.5q107 0 200 48z" glyph-name="oe" horiz-adv-x="2148" unicode="œ"/><glyph d="M1223 1470h-185l-129 117l-129 -117h-184l188 232h250zM1235 618l244 730h243l-460 -1379l-353 811l-352 -811l-465 1379h244l246 -734l327 754z" glyph-name="Wcircumflex" horiz-adv-x="1814" unicode="Ŵ"/><glyph d="M1223 1470h-185l-129 117l-129 -117h-184l188 232h250zM1235 618l244 730h243l-460 -1379l-353 811l-352 -811l-465 1379h244l246 -734l327 754z" glyph-name="wcircumflex" horiz-adv-x="1814" unicode="ŵ"/><glyph d="M1077 1470h-184l-129 117l-129 -117h-184l188 232h250zM764 694l405 654h277l-567 -897v-451h-230v451l-561 897h274z" glyph-name="Ycircumflex" horiz-adv-x="1533" unicode="Ŷ"/><glyph d="M1077 1470h-184l-129 117l-129 -117h-184l188 232h250zM764 694l405 654h277l-567 -897v-451h-230v451l-561 897h274z" glyph-name="ycircumflex" horiz-adv-x="1533" unicode="ŷ"/><glyph d="M478 1653q32 31 75 30q45 0 76 -30q31 -31 30 -76q0 -43 -30 -75q-31 -32 -76 -32q-43 0 -75 32t-32 75q0 45 32 76zM909 1653q31 31 76 30q45 0 76 -30q31 -31 31 -76q0 -43 -32 -75t-75 -32t-75 32t-31 75q-1 45 30 76zM764 694l405 654h277l-567 -897v-451h-230v451 l-561 897h274z" glyph-name="Ydieresis" horiz-adv-x="1533" unicode="Ÿ"/><glyph d="M-205 1470l-254 236h250l189 -236h-185z" glyph-name="gravecomb" horiz-adv-x="0" unicode="̀"/><glyph d="M-1317 1470l191 234h247l-254 -234h-184z" glyph-name="acutecomb" horiz-adv-x="0" unicode="́"/><glyph d="M-889 1470h-184l-129 117l-129 -117h-185l189 232h250z" glyph-name="uni0302" horiz-adv-x="0" unicode="̂"/><glyph d="M-954 1507q-66 -37 -142 -37q-90 0 -168 58q-29 23 -61 22q-27 0 -53 -14q-23 -12 -38.5 -27.5l-19.5 -19.5l-147 110q-4 4 33 38t84 61q72 39 141 39q90 0 166 -58q37 -27 67 -26q23 0 45 16l62 49l147 -110q6 -4 -31.5 -39t-84.5 -62z" glyph-name="tildecomb" horiz-adv-x="0" unicode="̃"/><glyph d="M-202.5 1654q30.5 32 75.5 32q43 0 75 -32t32 -75q0 -45 -32 -77t-75 -32q-45 0 -75.5 32t-30.5 77q0 43 30.5 75z" glyph-name="uni0307" horiz-adv-x="0" unicode="̇"/><glyph d="M-990 1652.5q32 30.5 75 30.5q45 0 75.5 -30.5t30.5 -75.5q0 -43 -30.5 -75t-75.5 -32q-43 0 -75 32t-32 75q0 45 32 75.5zM-559 1652.5q31 30.5 76 30.5t75.5 -30.5t30.5 -75.5q0 -43 -31.5 -75t-74.5 -32t-75 32t-32 75q0 45 31 75.5z" glyph-name="uni0308" horiz-adv-x="0" unicode="̈"/><glyph d="M-1078.5 1533.5q-62.5 -63.5 -150.5 -63.5q-90 0 -152.5 63.5t-62.5 152.5q0 88 63.5 150t151.5 62t150.5 -62t62.5 -150q0 -89 -62.5 -152.5zM-1208.5 1706q-8.5 8 -20.5 8t-21.5 -8t-9.5 -20t9.5 -21.5t21.5 -9.5t20.5 9t8.5 22q0 12 -8.5 20z" glyph-name="uni030A" horiz-adv-x="0" unicode="̊"/><glyph d="M-829 -393q-70 -57 -168 -58q-47 0 -91.5 15.5t-76.5 42.5q-39 31 -59.5 71.5t-20.5 88.5h174q0 -14 21.5 -28.5t52.5 -14.5t52 14t21 29q0 14 -21.5 27t-51.5 13h-86v193h174v-31q49 -16 80 -43q39 -31 59 -72.5t20 -86.5q0 -47 -20 -88t-59 -72z" glyph-name="uni0327" horiz-adv-x="0" unicode="̧"/><glyph d="M-1237 492h-725v229h725v-229z" glyph-name="uni0335" horiz-adv-x="0" unicode="̵"/><glyph d="M-633 1348l-794 -1348h-269l795 1348h268z" glyph-name="uni0338" horiz-adv-x="0" unicode="̸"/><glyph d="M825 1470l-254 236h250l189 -236h-185zM1235 618l244 730h243l-460 -1379l-353 811l-352 -811l-465 1379h244l246 -734l327 754z" glyph-name="Wgrave" horiz-adv-x="1814" unicode="Ẁ"/><glyph d="M825 1470l-254 236h250l189 -236h-185zM1235 618l244 730h243l-460 -1379l-353 811l-352 -811l-465 1379h244l246 -734l327 754z" glyph-name="wgrave" horiz-adv-x="1814" unicode="ẁ"/><glyph d="M817 1470l191 234h247l-254 -234h-184zM1235 618l244 730h243l-460 -1379l-353 811l-352 -811l-465 1379h244l246 -734l327 754z" glyph-name="Wacute" horiz-adv-x="1814" unicode="Ẃ"/><glyph d="M817 1470l191 234h247l-254 -234h-184zM1235 618l244 730h243l-460 -1379l-353 811l-352 -811l-465 1379h244l246 -734l327 754z" glyph-name="wacute" horiz-adv-x="1814" unicode="ẃ"/><glyph d="M615 1653q32 31 75 30q45 0 76 -30q31 -31 31 -76q0 -43 -31 -75t-76 -32q-43 0 -75 32t-31 75q-1 45 31 76zM1047 1653q31 31 75 30q45 0 76 -30q31 -31 31 -76q0 -43 -32 -75t-75 -32t-74 32q-32 32 -32 75q0 45 31 76zM1235 618l244 730h243l-460 -1379l-353 811 l-352 -811l-465 1379h244l246 -734l327 754z" glyph-name="Wdieresis" horiz-adv-x="1814" unicode="Ẅ"/><glyph d="M615 1653q32 31 75 30q45 0 76 -30q31 -31 31 -76q0 -43 -31 -75t-76 -32q-43 0 -75 32t-31 75q-1 45 31 76zM1047 1653q31 31 75 30q45 0 76 -30q31 -31 31 -76q0 -43 -32 -75t-75 -32t-74 32q-32 32 -32 75q0 45 31 76zM1235 618l244 730h243l-460 -1379l-353 811 l-352 -811l-465 1379h244l246 -734l327 754z" glyph-name="wdieresis" horiz-adv-x="1814" unicode="ẅ"/><glyph d="M700 1470l-254 236h250l189 -236h-185zM764 694l405 654h277l-567 -897v-451h-230v451l-561 897h274z" glyph-name="Ygrave" horiz-adv-x="1533" unicode="Ỳ"/><glyph d="M700 1470l-254 236h250l189 -236h-185zM764 694l405 654h277l-567 -897v-451h-230v451l-561 897h274z" glyph-name="ygrave" horiz-adv-x="1533" unicode="ỳ"/><glyph d="M848 561h-725v230h725v-230z" glyph-name="endash" horiz-adv-x="970" unicode="–"/><glyph d="M143 1118l109 316h188l-164 -316h-133z" glyph-name="quoteleft" horiz-adv-x="563" unicode="‘"/><glyph d="M143 1118l109 316h188l-166 -316h-131z" glyph-name="quoteright" horiz-adv-x="563" unicode="’"/><glyph d="M113 -158l110 316h187l-164 -316h-133z" glyph-name="quotesinglbase" horiz-adv-x="552" unicode="‚"/><glyph d="M528 1118l111 316h186l-163 -316h-134zM154 1118l108 316h189l-164 -316h-133z" glyph-name="quotedblleft" horiz-adv-x="978" unicode="“"/><glyph d="M528 1118l111 316h186l-163 -316h-134zM154 1118l110 316h187l-164 -316h-133z" glyph-name="quotedblright" horiz-adv-x="978" unicode="”"/><glyph d="M113 -158l110 316h187l-164 -316h-133zM113 -158h133l164 316h-187z" glyph-name="quotedblbase" horiz-adv-x="552" unicode="„"/><glyph d="M603 30.5q-32 30.5 -32 75.5q0 43 32 75t75 32q45 0 76.5 -31.5t31.5 -75.5q0 -45 -31.5 -75.5t-76.5 -30.5q-43 0 -75 30.5zM174 30.5q-31 30.5 -31 75.5q0 43 32 75t75 32t74.5 -31.5t31.5 -75.5q0 -45 -30.5 -75.5t-75.5 -30.5t-76 30.5zM1033 31.5q-32 31.5 -32 74.5 q0 45 32 76t75 31q45 0 77 -30.5t32 -76.5q0 -43 -32 -74.5t-77 -31.5q-43 0 -75 31.5z" glyph-name="ellipsis" horiz-adv-x="1359" unicode="…"/><glyph d="M866 434v-282l-723 524l723 522v-285l-329 -237z" glyph-name="guilsinglleft" horiz-adv-x="1009" unicode="‹"/><glyph d="M143 915v285l725 -524l-725 -522v282l332 240z" glyph-name="guilsinglright" horiz-adv-x="1011" unicode="›"/><glyph d="M1186 1348l-795 -1348h-268l795 1348h268z" glyph-name="fraction" horiz-adv-x="1308" unicode="⁄"/><glyph d="M719 1083q-92 -47 -156 -129h326v-229h-418q-4 -33 -4 -51t4 -51h418v-232h-326q63 -80 156.5 -127t198.5 -47h178v-229h-178q-205 0 -372 111.5t-249 291.5h-205v232h148q-2 16 -2 51t2 51h-148v229h205q82 182 249 294t372 112h178v-230h-178q-107 0 -199 -47z" glyph-name="Euro" horiz-adv-x="1261" unicode="€"/><glyph d="M2793 0h-229v649l-461 -643l-465 645v-651h-229v1368l694 -967l690 967v-1368zM1139 1348v-232h-406v-1116h-229v1116h-404v232h1039z" glyph-name="trademark" horiz-adv-x="2963" unicode="™"/><glyph d="M848 561h-725v230h725v-230z" glyph-name="minus" horiz-adv-x="970" unicode="−"/><glyph d="M721 1362l600 -1362h-252l-352 803l-371 -803h-254z" glyph-name="glyph203" horiz-adv-x="1413"/><glyph d="M721 1362l600 -1362h-252l-352 803l-371 -803h-254z" glyph-name="glyph204" horiz-adv-x="1413"/></font>
</defs>
</svg>
