<?xml version="1.0" standalone="no"?>
<!DOCTYPE svg PUBLIC "-//W3C//DTD SVG 1.1//EN" "http://www.w3.org/Graphics/SVG/1.1/DTD/svg11.dtd">
<svg xmlns="http://www.w3.org/2000/svg"><metadata>This SVG WebFont was generated by YouWorkForThem.
Ellen Luff</metadata><defs><font horiz-adv-x="1398" id="ywftsvg"><font-face ascent="1638" bbox="-2083 -451 2843 1898" cap-height="1348" descent="-410" font-family="" font-stretch="normal" font-weight="700" panose-1="0 0 8 0 0 0 0 0 0 0" underline-position="0" underline-thickness="0" unicode-range="U+0020-2212" units-per-em="2048" x-height="1348"/><missing-glyph d="M756 1434v-1844h-584v1844h584zM614 176h-307v-209h307v209zM553 117v-88h-184v88h184zM614 496h-184v-103h62v41h61v-86h-184v148h-62v-209h307v209zM614 721h-61v-123h-246v-61h307v184zM614 831h-307v-61h123v-68h-123v-61h185v129h122v61zM430 1010v-66h-61v66h61z M492 1073h-185v-192h307v63h-122v129zM614 1311h-305v-62h121v-67h-123v-62h307v62h-122v67h122v62zM614 -74h-307v-61h129l-129 -86v-62h307v62h-188l129 86h59v61z" horiz-adv-x="921"/><glyph d="M756 1434v-1844h-584v1844h584zM614 176h-307v-209h307v209zM553 117v-88h-184v88h184zM614 496h-184v-103h62v41h61v-86h-184v148h-62v-209h307v209zM614 721h-61v-123h-246v-61h307v184zM614 831h-307v-61h123v-68h-123v-61h185v129h122v61zM430 1010v-66h-61v66h61z M492 1073h-185v-192h307v63h-122v129zM614 1311h-305v-62h121v-67h-123v-62h307v62h-122v67h122v62zM614 -74h-307v-61h129l-129 -86v-62h307v62h-188l129 86h59v61z" glyph-name=".notdef" horiz-adv-x="921"/><glyph glyph-name="glyph1" horiz-adv-x="0"/><glyph glyph-name="glyph2" horiz-adv-x="682"/><glyph glyph-name="space" horiz-adv-x="614" unicode=" "/><glyph d="M29 195.5q41 33.5 88 33.5q41 0 67.5 -25.5t26.5 -66.5q0 -14 -2 -22q-10 -47 -50 -81t-87 -34q-41 0 -68 26.5t-27 65.5q0 14 3 23q8 47 49 80.5zM449 1348l-46 -232l-182 -788h-170l123 788l45 232h230z" glyph-name="exclam" horiz-adv-x="577" unicode="!"/><glyph d="M530 1118l170 316h189l-225 -316h-134zM154 1118l172 316h188l-227 -316h-133z" glyph-name="quotedbl" horiz-adv-x="980" unicode="&quot;"/><glyph d="M1481 836h-287l-104 -324h286l-76 -227h-286l-92 -285h-232l94 285h-325l-94 -285h-230l92 285h-286l75 227h287l105 324h-287l76 227h286l92 285h232l-94 -285h327l93 285h229l-92 -285h286zM860 512l105 324h-326l-104 -324h325z" glyph-name="numbersign" horiz-adv-x="1669" unicode="#"/><glyph d="M924 561q25 -55 24 -119q0 -84 -43 -174q-78 -150 -231 -223q-72 -35 -168 -51l-37 -197h-229l39 203q-188 33 -318 178l191 168q117 -129 305 -129q109 0 164 38t77 81q16 31 17 63q0 49 -38 81t-83 44l-240 74q-164 55 -221 184q-25 55 -24 117q0 84 45 174 q72 147 229 225q82 37 158 50l39 202h229l-39 -204q193 -33 328 -181l-191 -170q-117 131 -305 131q-109 0 -164 -37.5t-78 -80.5q-16 -33 -16 -64q0 -51 38 -82t83 -43l240 -76q162 -53 219 -182z" glyph-name="dollar" horiz-adv-x="1230" unicode="$"/><glyph d="M1272 37q-78 -41 -160 -41q-109 0 -178.5 70.5t-69.5 175.5q0 29 6 59q16 82 70.5 152.5t131.5 111.5t159 41q111 0 180.5 -69.5t69.5 -176.5q0 -29 -6 -59q-16 -82 -70.5 -152.5t-132.5 -111.5zM1234 353.5q-17 21.5 -48 21.5q-29 0 -54.5 -21.5t-31.5 -52.5t10 -53.5 t45 -22.5q31 0 57.5 22.5t32.5 53.5t-11 52.5zM532.5 776q-77.5 -41 -159.5 -41q-111 0 -180.5 69.5t-69.5 174.5q0 29 6 59q16 82 70.5 153t132.5 111.5t160 40.5q111 0 180 -69.5t69 -175.5q0 -29 -6 -60q-16 -82 -70.5 -151.5t-132 -110.5zM494.5 1091.5 q-17.5 22.5 -48.5 22.5t-56 -22.5t-32 -53.5q-6 -31 11.5 -52t48.5 -21t56.5 21.5t31.5 51.5q6 31 -11.5 53.5zM1464 1348l-1054 -1348h-269l1055 1348h268z" glyph-name="percent" horiz-adv-x="1775" unicode="%"/><glyph d="M1167 0h-323l-90 109q-184 -121 -326 -121q-115 0 -204 42t-139 116.5t-50 166.5q0 35 6 68q35 176 195 287q18 12 55 32q-63 92 -64 205q0 43 9 78q16 78 59 146.5t111 119.5q61 51 138 79t154 28q158 0 252 -107q72 -82 72 -194q0 -23 -8 -72q-25 -137 -170 -248 l-129 166q63 45 69 82q2 8 2 27q0 51 -36.5 83.5t-96.5 32.5q-68 0 -122 -42t-66 -101q-2 -10 -2 -31q0 -66 45 -121zM623 274l-203 256q-72 -35 -104.5 -67.5t-43.5 -81.5q-2 -6 -2 -21q0 -59 58.5 -101t144.5 -42q50 0 150 57zM1239 446q-23 -16 -109 -75l-129 164l58 40 q10 8 23.5 16.5t25.5 18.5z" glyph-name="ampersand" horiz-adv-x="1548" unicode="&amp;"/><glyph d="M143 1118l172 316h187l-226 -316h-133z" glyph-name="quotesingle" horiz-adv-x="563" unicode="'"/><glyph d="M236 393q0 -55 40.5 -103t104.5 -65l-45 -233q-150 18 -246 127q-43 47 -66.5 106.5t-23.5 122.5q0 25 8 70q8 47 22.5 120.5t30.5 159.5l45 232q16 82 68.5 159.5t132.5 139.5q66 53 142.5 86t152.5 41l-45 -234q-76 -20 -142.5 -73.5t-78.5 -118.5l-45 -232 q-16 -86 -30.5 -159.5t-22.5 -120.5q-2 -9 -2 -25z" glyph-name="parenleft" horiz-adv-x="698" unicode="("/><glyph d="M113.5 301q64.5 57 76.5 117q8 47 22.5 120.5t31.5 159.5l45 232q2 10 2 26q0 57 -42 102.5t-104 63.5l45 234q145 -14 248 -127q43 -47 66.5 -106.5t23.5 -123.5q0 -25 -8 -69l-45 -232q-16 -86 -30.5 -159.5t-22.5 -120.5q-16 -82 -69.5 -160t-131.5 -139 q-135 -109 -297 -127l45 233q80 19 144.5 76z" glyph-name="parenright" horiz-adv-x="700" unicode=")"/><glyph d="M864 1034l-225 -67l96 -183l-213 -135l-96 182l-166 -182l-160 135l166 183l-200 69l114 217l201 -67l43 223h229l-43 -223l226 67z" glyph-name="asterisk" horiz-adv-x="962" unicode="*"/><glyph d="M805 791l-45 -232h-246l-47 -246h-231l47 246h-248l45 232h248l49 247h231l-49 -247h246z" glyph-name="plus" horiz-adv-x="1011" unicode="+"/><glyph d="M-135 -158l172 316h186l-225 -316h-133z" glyph-name="comma" horiz-adv-x="552" unicode=","/><glyph d="M760 561h-725l45 230h725z" glyph-name="hyphen" horiz-adv-x="1011" unicode="-"/><glyph d="M-55 88q0 12 2 18q10 43 47 75t80 32q39 0 63.5 -24.5t24.5 -61.5q0 -14 -2 -21q-8 -45 -45 -75.5t-82 -30.5q-39 0 -63.5 24.5t-24.5 63.5z" glyph-name="period" horiz-adv-x="499" unicode="."/><glyph d="M1231 1348l-1057 -1348h-268l1057 1348h268z" glyph-name="slash" horiz-adv-x="1308" unicode="/"/><glyph d="M591 20.5q-89 -32.5 -179 -32.5t-168 32.5t-133 96.5q-88 100 -88 231q0 35 6 68l98 514q14 78 67.5 156.5t133.5 142.5q80 63 170 96t180 33t167 -33t132 -96q88 -100 88 -232q0 -33 -6 -67l-35 -187q-37 -184 -63 -327q-16 -80 -68.5 -158t-132.5 -141 q-80 -64 -169 -96.5zM733 1102.5q-45 25.5 -100 25.5q-53 0 -113.5 -27.5t-105.5 -73.5t-56 -97l-98 -514q-2 -8 -2 -25q0 -41 26.5 -82t71.5 -66.5t101 -25.5q59 0 119.5 31t101.5 77t51 91l98 514q2 8 2 24q0 41 -25.5 82t-70.5 66.5z" glyph-name="zero" horiz-adv-x="1239" unicode="0"/><glyph d="M25 817l696 561l-268 -1378h-230l164 840l-426 -342z" glyph-name="one" horiz-adv-x="839" unicode="1"/><glyph d="M897 229l-45 -229h-946q238 260 448 477q178 188 253 272.5t114 144.5t41 105q2 63 -45 105q-37 29 -90 29q-55 0 -116.5 -33t-115.5 -84l-57 -58l-154 142q6 6 24.5 23.5t41.5 41.5q96 98 205.5 149.5t212.5 51.5q125 0 217 -74q57 -45 85.5 -111.5t24.5 -144.5 q-2 -92 -47 -178t-119.5 -173t-224.5 -243q-88 -92 -201 -213h494z" glyph-name="two" horiz-adv-x="1191" unicode="2"/><glyph d="M901 483q0 -37 -6 -73q-16 -88 -68.5 -167t-134.5 -139q-76 -57 -167 -86.5t-183 -29.5q-90 0 -169 29.5t-134 86.5q-68 70 -82 154v2l227 146q-2 -8 -2 -25q0 -29 11.5 -55.5t29.5 -44.5q59 -63 164 -64q106 0 188 64q74 55 91 129q2 10 2 28q0 47 -25 90t-55 72 l-135 121l151 127q49 43 67.5 70.5t26.5 66.5q2 8 2 23q0 53 -38.5 87.5t-98.5 34.5q-66 0 -121 -43t-65 -102h-230q18 102 88 188.5t168.5 137.5t204.5 51q94 0 169 -41t116 -111.5t41 -156.5q0 -33 -6 -68q-27 -131 -127 -240q100 -112 100 -262z" glyph-name="three" horiz-adv-x="1155" unicode="3"/><glyph d="M805 0h-230l60 303h-690l843 1045h279l-158 -816h221l-45 -229h-221zM401 532h279l88 455z" glyph-name="four" horiz-adv-x="1314" unicode="4"/><glyph d="M647 45q-119 -57 -250 -57q-90 0 -167.5 27.5t-137.5 80.5q-47 45 -72.5 101.5t-25.5 117.5q0 31 6 62h231q-8 -37 17.5 -75t77 -61.5t116.5 -23.5q106 0 189 64q74 53 92 139q2 8 2 24q0 55 -39 101q-59 61 -168 61h-309l-127 -2l201 744h772l-45 -230h-559l-76 -282 q74 2 188 2q94 0 173 -31t134 -90q90 -96 91 -230q0 -33 -7 -67q-23 -121 -105.5 -219.5t-201.5 -155.5z" glyph-name="five" horiz-adv-x="1181" unicode="5"/><glyph d="M604 1348h260l-172 -242q-182 -258 -192 -270q14 2 43 2q92 0 170 -31t135 -88q92 -94 92 -232q0 -23 -8 -75q-16 -88 -68.5 -167t-134.5 -139q-78 -57 -169 -87.5t-183 -30.5t-171 30.5t-134 87.5q-94 98 -95 232q0 25 9 74q18 96 77 180zM314 550q-83 -56 -99 -138 q-2 -8 -2 -27q0 -57 43 -104q59 -63 166 -64q104 0 190 64q78 57 90 131q4 20 5 30q0 55 -43 103q-66 61 -166 61q-101 0 -184 -56z" glyph-name="six" horiz-adv-x="1150" unicode="6"/><glyph d="M1137 1348l-969 -1348h-260l803 1116h-598l45 232h979z" glyph-name="seven" horiz-adv-x="1193" unicode="7"/><glyph d="M936 483q0 -25 -8 -73q-16 -86 -69.5 -165t-135.5 -139q-76 -57 -166 -87.5t-182 -30.5t-171 30.5t-134 87.5q-92 98 -93 230q0 25 9 74q16 88 68 166.5t134 138.5l33 22q-51 78 -51 172q0 35 6 72q20 102 90 188t169.5 137.5t205.5 51.5q94 0 168 -40t115 -110.5 t41 -156.5q0 -33 -7 -70q-27 -137 -139 -244q23 -23 23 -22q94 -99 94 -232zM403 954q0 -51 38 -85.5t98 -34.5q66 0 121 43t67 104q2 8 2 27q0 51 -38 85.5t-95 34.5q-66 0 -122 -44t-68 -103q-3 -9 -3 -27zM696 410q4 20 4 30q0 53 -43 101q-61 61 -163 61 q-104 0 -189 -61q-74 -55 -90 -131q-4 -20 -4 -29q0 -59 45 -100q27 -31 70 -47.5t94 -16.5q102 0 188 64q72 53 88 129z" glyph-name="eight" horiz-adv-x="1167" unicode="8"/><glyph d="M412 0h-260l370 514l-41 -2q-94 0 -173 30.5t-134 88.5q-92 102 -92 235q0 35 6 72q16 88 69.5 167t135.5 138q76 57 167 88t185 31q92 0 171 -31t134 -88q94 -98 94 -231q0 -25 -8 -74q-18 -92 -80 -180zM705.5 797.5q82.5 54.5 99.5 140.5q4 20 4 31q0 55 -41 100 q-63 63 -166 64q-53 0 -102 -16.5t-88 -47.5q-76 -55 -93 -131q-4 -20 -4 -31q0 -55 43 -102q61 -61 168 -62q97 0 179.5 54.5z" glyph-name="nine" horiz-adv-x="1193" unicode="9"/><glyph d="M-31 209q0 14 2 20q8 43 46 75t81 32q39 0 63.5 -25.5t24.5 -62.5q0 -12 -2 -19q-10 -45 -46 -75.5t-81 -30.5q-39 0 -63.5 24.5t-24.5 61.5zM94 852q0 14 2 20q8 43 46 75t81 32q39 0 63.5 -25.5t24.5 -62.5q0 -12 -2 -19q-10 -45 -46 -75.5t-81 -30.5q-39 0 -63.5 24.5 t-24.5 61.5z" glyph-name="colon" horiz-adv-x="499" unicode=":"/><glyph d="M156 678q0 14 2 22q8 43 45 75t82 32q39 0 63.5 -25.5t24.5 -62.5q0 -12 -2 -19q-8 -45 -47 -75.5t-82 -30.5q-39 0 -62.5 23.5t-23.5 60.5zM-104 -158l172 316h186l-225 -316h-133z" glyph-name="semicolon" horiz-adv-x="593" unicode=";"/><glyph d="M733 436l-55 -284l-621 524l826 522l-56 -283l-378 -239z" glyph-name="less" horiz-adv-x="1009" unicode="&lt;"/><glyph d="M713 317h-725l45 230h725zM799 756h-725l45 229h725z" glyph-name="equal" horiz-adv-x="1011" unicode="="/><glyph d="M104 915l56 285l622 -524l-825 -522l53 282l379 240z" glyph-name="greater" horiz-adv-x="1011" unicode=">"/><glyph d="M532 367l-10 -52h-198l10 52q16 86 51 145t75 94t99 78l55 39q86 59 129 105t56 110q4 20 4 31q0 55 -43 98q-59 63 -164 63q-106 0 -188 -63q-74 -51 -91 -129h-229q18 88 74 170q53 76 129 133q78 57 168 88t182 31t170 -31t133 -88q57 -59 78 -133q14 -43 14 -96 q0 -41 -8 -74q-27 -137 -107.5 -225t-195.5 -170l-57 -39q-25 -18 -41 -25q-45 -29 -66 -50t-29 -62zM332 183.5q41 33.5 88 33.5q41 0 67.5 -26.5t26.5 -67.5q0 -12 -2 -21q-10 -47 -51 -80.5t-86 -33.5q-41 0 -67.5 26.5t-26.5 65.5q0 14 2 22q8 48 49 81.5z" glyph-name="question" horiz-adv-x="1226" unicode="?"/><glyph d="M1556 823q0 -78 -14 -149q-16 -78 -59 -148.5t-109 -122.5q-59 -47 -128.5 -73.5t-139.5 -26.5t-127 26.5t-94 78.5q-4 4 -7.5 8t-7.5 8q-74 -39 -151 -39q-104 0 -172 67.5t-68 168.5q0 29 6 55q16 80 68.5 146.5t126.5 105.5t151 39q51 0 89 -15h194l-55 -299 q-4 -49 19.5 -83.5t72.5 -34.5t99 36.5t63 102.5q10 57 10 102q0 78 -24.5 151.5t-69.5 131.5q-63 76 -153.5 114.5t-196.5 38.5q-145 0 -283.5 -72.5t-235 -196.5t-124.5 -269q-10 -57 -11 -103q0 -123 55.5 -221t156 -155.5t227.5 -57.5h553q-129 -111 -282 -171t-310 -60 q-182 0 -326.5 81t-225.5 223t-81 318q0 76 14 146q41 209 178.5 386t334 280.5t405.5 103.5q152 0 279.5 -57.5t215.5 -163.5q137 -169 137 -400zM809.5 632.5q21.5 18.5 26.5 43.5q2 4 2 14q0 29 -29 43q-12 4 -23 4q-16 0 -30 -6q-33 -16 -43 -55q-4 -25 10 -43.5 t39 -18.5q26 0 47.5 18.5z" glyph-name="at" horiz-adv-x="1720" unicode="@"/><glyph d="M252 184l-123 -184h-254l887 1348l332 -1348h-252l-45 184h-545zM647 788l-244 -372h336z" glyph-name="A" horiz-adv-x="1402" unicode="A"/><glyph d="M1024 479q0 -33 -6 -67q-14 -80 -64.5 -156t-124.5 -133q-78 -59 -172 -91t-192 -32h-514l262 1348h420q190 0 293 -113q76 -82 75 -201q0 -33 -6 -67q-18 -100 -96 -193q-10 -12 -22 -22q66 -41 106 -111q41 -76 41 -162zM342 825h182q47 0 74 4.5t53 14.5 q2 0 50.5 23.5t62.5 99.5q2 8 2 22q0 43 -29 76q-45 51 -149 51h-189zM788 412q2 8 3 24q0 41 -25 75t-59 50q-72 33 -189 33h-221l-70 -365h283q115 0 197 64q69 53 81 119z" glyph-name="B" horiz-adv-x="1257" unicode="B"/><glyph d="M860.5 55.5q-151.5 -67.5 -307.5 -67.5q-162 0 -289 72.5t-198.5 199.5t-71.5 283q0 66 12 133q37 186 159 344t296 250t358 92q145 0 265 -59.5t196 -165.5l-201 -154q-51 72 -130 111t-173 39q-123 0 -238.5 -61.5t-196.5 -167t-105 -228.5q-8 -41 -9 -88 q0 -104 47.5 -189.5t131 -133.5t192.5 -48q102 0 202.5 45t180.5 125l152 -143q-121 -121 -272.5 -188.5z" glyph-name="C" horiz-adv-x="1394" unicode="C"/><glyph d="M648 53q-134 -53 -275 -53h-422l262 1348h422q141 0 253.5 -53.5t184.5 -153.5q96 -133 96 -322q0 -74 -14 -143q-27 -133 -94.5 -254t-167.5 -215q-111 -101 -245 -154zM397 1116l-172 -887h193q188 0 332 131q68 61 113.5 143.5t62.5 172.5q10 55 10 96q0 123 -64 215 q-88 129 -282 129h-193z" glyph-name="D" horiz-adv-x="1343" unicode="D"/><glyph d="M803 0h-852l262 1348h852l-45 -232h-621l-63 -325h467l-45 -232h-467l-64 -330h621z" glyph-name="E" horiz-adv-x="1185" unicode="E"/><glyph d="M180 0h-229l262 1348h850l-45 -232h-621l-63 -325h469l-45 -232h-469z" glyph-name="F" horiz-adv-x="1167" unicode="F"/><glyph d="M1204 743l-145 -743h-506q-162 0 -288 71.5t-196.5 196.5t-70.5 281q0 63 12 131q35 184 156 341t294 249t357 92q141 0 261 -57.5t194 -163.5l-199 -154q-49 68 -129 105.5t-172 37.5q-121 0 -235.5 -60t-194.5 -163.5t-102 -226.5q-8 -41 -9 -88q0 -102 47.5 -184 t130.5 -130.5t189 -48.5h276l56 285h-322l45 229h551z" glyph-name="G" horiz-adv-x="1445" unicode="G"/><glyph d="M745 0l109 559h-563l-109 -559h-229l262 1348h229l-108 -557h563l109 557h229l-260 -1348h-232z" glyph-name="H" horiz-adv-x="1363" unicode="H"/><glyph d="M205 0h-232l263 1348h231z" glyph-name="I" horiz-adv-x="612" unicode="I"/><glyph d="M508.5 34q-107.5 -46 -221.5 -46q-143 0 -248 79.5t-150 219.5l228 102q25 -82 81 -127t134 -45q139 0 242.5 114.5t142.5 309.5l137 707h229l-137 -707q-59 -299 -241 -475q-89 -86 -196.5 -132z" glyph-name="J" horiz-adv-x="1196" unicode="J"/><glyph d="M983 0h-285l-270 500l-483 -531l268 1379h229l-129 -660l605 660h282l-594 -650z" glyph-name="K" horiz-adv-x="1302" unicode="K"/><glyph d="M803 0h-852l262 1348h231l-217 -1119h621z" glyph-name="L" horiz-adv-x="1167" unicode="L"/><glyph d="M1337 0h-229l127 649l-586 -643l-340 645l-127 -651h-229l266 1368l506 -967l879 967z" glyph-name="M" horiz-adv-x="1724" unicode="M"/><glyph d="M1008 -31l-670 832l-156 -801h-229l266 1368l670 -831l158 811h229z" glyph-name="N" unicode="N"/><glyph d="M914.5 80q-175.5 -92 -359.5 -92q-162 0 -290 72.5t-199.5 198.5t-71.5 284q0 63 12 131q37 186 159 344t297 250t359 92q164 0 291 -71.5t198.5 -198.5t71.5 -283q0 -66 -12 -133q-37 -186 -158.5 -344t-297 -250zM969 1082q-84 48 -193 48q-123 0 -237.5 -61 t-195.5 -166.5t-105 -228.5q-8 -41 -9 -88q0 -104 47.5 -188.5t131.5 -132.5t192 -48q123 0 237.5 61.5t195.5 166t106 229.5q8 41 8 88q0 104 -47 188t-131 132z" glyph-name="O" horiz-adv-x="1548" unicode="O"/><glyph d="M182 0h-231l262 1348h115h387q90 0 166.5 -30t132.5 -85q92 -96 92 -225q0 -23 -8 -72q-16 -86 -67.5 -162t-131.5 -137q-78 -55 -166 -85t-178 -30h-272zM397 1116l-69 -362h272q104 0 180 59q74 51 86 123q2 8 2 27q0 55 -39 96q-57 57 -159 57h-273z" glyph-name="P" horiz-adv-x="1245" unicode="P"/><glyph d="M1006 0l-70 92q-186 -104 -381 -104q-164 0 -291 71.5t-198.5 198.5t-71.5 283q0 66 12 133q37 186 159 344t297 250t359 92q162 0 290 -71.5t198.5 -198.5t70.5 -283q0 -66 -12 -133q-23 -119 -82 -228.5t-149 -199.5l184 -246h-315zM807 266l-238 322l201 157l242 -327 q100 115 127 256q8 41 8 88q0 104 -47 188t-131 132t-193 48q-123 0 -238.5 -61t-196.5 -165.5t-105 -229.5q-8 -41 -9 -88q0 -104 47.5 -188.5t132.5 -132.5t193 -48q103 0 207 49z" glyph-name="Q" horiz-adv-x="1640" unicode="Q"/><glyph d="M635 0l-338 594l-115 -594h-229l260 1348h494q98 0 179 -32t134 -91q86 -90 86 -221q0 -33 -6 -68q-25 -127 -125 -229q-84 -88 -197 -127q-41 -14 -90 -24.5t-72 -10.5l304 -545h-285zM399 1116l-69 -362h200q123 0 199 32q47 18 88 59.5t51 90.5q2 8 2 27q0 53 -36 92 q-55 61 -172 61h-263z" glyph-name="R" horiz-adv-x="1259" unicode="R"/><glyph d="M966 603q42 -71 42 -152q0 -33 -7 -64q-16 -84 -73.5 -160.5t-145.5 -134.5q-166 -106 -364 -106q-96 0 -180 27.5t-144 78.5q-84 72 -102 172l227 117q-2 -33 12.5 -59.5t34.5 -42.5q35 -29 87.5 -45.5t109.5 -16.5q59 0 115.5 16.5t101.5 45.5q78 51 90 108l2 19 q0 33 -19.5 62.5t-56.5 49.5q-39 25 -184 43q-164 18 -242 60q-84 45 -129 117.5t-45 160.5q0 31 6 64q16 84 72.5 160.5t144.5 133.5q82 51 176.5 79t190.5 28t179 -27.5t143 -79.5q84 -70 104 -174l-229 -118q6 57 -47 106q-74 61 -195 62q-59 0 -116.5 -16.5 t-102.5 -45.5q-78 -51 -90 -108l-2 -19q0 -35 22.5 -66.5t63.5 -50.5q29 -14 62.5 -21t111.5 -18q178 -23 256 -67q78 -47 120 -118z" glyph-name="S" horiz-adv-x="1286" unicode="S"/><glyph d="M1184 1348l-45 -232h-406l-217 -1116h-229l217 1116h-404l45 232h1039z" glyph-name="T" horiz-adv-x="1239" unicode="T"/><glyph d="M693.5 29q-105.5 -41 -212.5 -41q-109 0 -198.5 41t-147.5 116q-92 121 -92 277q0 47 10 104l160 822h231l-159 -822q-6 -31 -6 -63q0 -88 51 -156q74 -90 196 -90q59 0 119 23.5t109 66.5q104 86 131 219l159 822h232l-160 -822q-23 -109 -81 -207t-146 -174 q-90 -75 -195.5 -116z" glyph-name="U" unicode="U"/><glyph d="M584 539l516 809h252l-879 -1379l-342 1379h250z" glyph-name="V" unicode="V"/><glyph d="M1139 618l385 730h243l-729 -1379l-194 811l-510 -811l-197 1379h244l102 -734l475 754z" glyph-name="W" horiz-adv-x="1814" unicode="W"/><glyph d="M1049 0h-273l-219 467l-399 -467h-273l576 676l-311 672h274l215 -465l397 465h275l-576 -672z" glyph-name="X" horiz-adv-x="1368" unicode="X"/><glyph d="M682 694l532 654h277l-741 -897l-88 -451h-230l88 451l-387 897h275z" glyph-name="Y" horiz-adv-x="1533" unicode="Y"/><glyph d="M895 0h-958l798 1116h-579l45 232h958l-799 -1119h580z" glyph-name="Z" horiz-adv-x="1267" unicode="Z"/><glyph d="M301 0h-375l262 1348h375l-45 -232h-145l-172 -885h145z" glyph-name="bracketleft" horiz-adv-x="661" unicode="["/><glyph d="M436 1348l533 -1348h-269l-532 1348h268z" glyph-name="backslash" horiz-adv-x="1308" unicode="\"/><glyph d="M301 0h-375l45 231h144l172 885h-144l45 232h375z" glyph-name="bracketright" horiz-adv-x="661" unicode="]"/><glyph d="M238 756l-134 162l564 471l379 -469l-195 -164l-248 307z" glyph-name="asciicircum" horiz-adv-x="1228" unicode="^"/><glyph d="M1200 0h-1294l45 229h1294z" glyph-name="underscore" horiz-adv-x="1540" unicode="_"/><glyph d="M252 184l-123 -184h-254l887 1348l332 -1348h-252l-45 184h-545zM647 788l-244 -372h336z" glyph-name="a" horiz-adv-x="1402" unicode="a"/><glyph d="M1024 479q0 -33 -6 -67q-14 -80 -64.5 -156t-124.5 -133q-78 -59 -172 -91t-192 -32h-514l262 1348h420q190 0 293 -113q76 -82 75 -201q0 -33 -6 -67q-18 -100 -96 -193q-10 -12 -22 -22q66 -41 106 -111q41 -76 41 -162zM342 825h182q47 0 74 4.5t53 14.5 q2 0 50.5 23.5t62.5 99.5q2 8 2 22q0 43 -29 76q-45 51 -149 51h-189zM788 412q2 8 3 24q0 41 -25 75t-59 50q-72 33 -189 33h-221l-70 -365h283q115 0 197 64q69 53 81 119z" glyph-name="b" horiz-adv-x="1257" unicode="b"/><glyph d="M860.5 55.5q-151.5 -67.5 -307.5 -67.5q-162 0 -289 72.5t-198.5 199.5t-71.5 283q0 66 12 133q37 186 159 344t296 250t358 92q145 0 265 -59.5t196 -165.5l-201 -154q-51 72 -130 111t-173 39q-123 0 -238.5 -61.5t-196.5 -167t-105 -228.5q-8 -41 -9 -88 q0 -104 47.5 -189.5t131 -133.5t192.5 -48q102 0 202.5 45t180.5 125l152 -143q-121 -121 -272.5 -188.5z" glyph-name="c" horiz-adv-x="1394" unicode="c"/><glyph d="M648 53q-134 -53 -275 -53h-422l262 1348h422q141 0 253.5 -53.5t184.5 -153.5q96 -133 96 -322q0 -74 -14 -143q-27 -133 -94.5 -254t-167.5 -215q-111 -101 -245 -154zM397 1116l-172 -887h193q188 0 332 131q68 61 113.5 143.5t62.5 172.5q10 55 10 96q0 123 -64 215 q-88 129 -282 129h-193z" glyph-name="d" horiz-adv-x="1343" unicode="d"/><glyph d="M803 0h-852l262 1348h852l-45 -232h-621l-63 -325h467l-45 -232h-467l-64 -330h621z" glyph-name="e" horiz-adv-x="1185" unicode="e"/><glyph d="M180 0h-229l262 1348h850l-45 -232h-621l-63 -325h469l-45 -232h-469z" glyph-name="f" horiz-adv-x="1167" unicode="f"/><glyph d="M1204 743l-145 -743h-506q-162 0 -288 71.5t-196.5 196.5t-70.5 281q0 63 12 131q35 184 156 341t294 249t357 92q141 0 261 -57.5t194 -163.5l-199 -154q-49 68 -129 105.5t-172 37.5q-121 0 -235.5 -60t-194.5 -163.5t-102 -226.5q-8 -41 -9 -88q0 -102 47.5 -184 t130.5 -130.5t189 -48.5h276l56 285h-322l45 229h551z" glyph-name="g" horiz-adv-x="1445" unicode="g"/><glyph d="M745 0l109 559h-563l-109 -559h-229l262 1348h229l-108 -557h563l109 557h229l-260 -1348h-232z" glyph-name="h" horiz-adv-x="1363" unicode="h"/><glyph d="M205 0h-232l263 1348h231z" glyph-name="i" horiz-adv-x="612" unicode="i"/><glyph d="M508.5 34q-107.5 -46 -221.5 -46q-143 0 -248 79.5t-150 219.5l228 102q25 -82 81 -127t134 -45q139 0 242.5 114.5t142.5 309.5l137 707h229l-137 -707q-59 -299 -241 -475q-89 -86 -196.5 -132z" glyph-name="j" horiz-adv-x="1196" unicode="j"/><glyph d="M983 0h-285l-270 500l-483 -531l268 1379h229l-129 -660l605 660h282l-594 -650z" glyph-name="k" horiz-adv-x="1302" unicode="k"/><glyph d="M803 0h-852l262 1348h231l-217 -1119h621z" glyph-name="l" horiz-adv-x="1167" unicode="l"/><glyph d="M1337 0h-229l127 649l-586 -643l-340 645l-127 -651h-229l266 1368l506 -967l879 967z" glyph-name="m" horiz-adv-x="1724" unicode="m"/><glyph d="M1008 -31l-670 832l-156 -801h-229l266 1368l670 -831l158 811h229z" glyph-name="n" unicode="n"/><glyph d="M914.5 80q-175.5 -92 -359.5 -92q-162 0 -290 72.5t-199.5 198.5t-71.5 284q0 63 12 131q37 186 159 344t297 250t359 92q164 0 291 -71.5t198.5 -198.5t71.5 -283q0 -66 -12 -133q-37 -186 -158.5 -344t-297 -250zM969 1082q-84 48 -193 48q-123 0 -237.5 -61 t-195.5 -166.5t-105 -228.5q-8 -41 -9 -88q0 -104 47.5 -188.5t131.5 -132.5t192 -48q123 0 237.5 61.5t195.5 166t106 229.5q8 41 8 88q0 104 -47 188t-131 132z" glyph-name="o" horiz-adv-x="1548" unicode="o"/><glyph d="M182 0h-231l262 1348h115h387q90 0 166.5 -30t132.5 -85q92 -96 92 -225q0 -23 -8 -72q-16 -86 -67.5 -162t-131.5 -137q-78 -55 -166 -85t-178 -30h-272zM397 1116l-69 -362h272q104 0 180 59q74 51 86 123q2 8 2 27q0 55 -39 96q-57 57 -159 57h-273z" glyph-name="p" horiz-adv-x="1245" unicode="p"/><glyph d="M1006 0l-70 92q-186 -104 -381 -104q-164 0 -291 71.5t-198.5 198.5t-71.5 283q0 66 12 133q37 186 159 344t297 250t359 92q162 0 290 -71.5t198.5 -198.5t70.5 -283q0 -66 -12 -133q-23 -119 -82 -228.5t-149 -199.5l184 -246h-315zM807 266l-238 322l201 157l242 -327 q100 115 127 256q8 41 8 88q0 104 -47 188t-131 132t-193 48q-123 0 -238.5 -61t-196.5 -165.5t-105 -229.5q-8 -41 -9 -88q0 -104 47.5 -188.5t132.5 -132.5t193 -48q103 0 207 49z" glyph-name="q" horiz-adv-x="1640" unicode="q"/><glyph d="M635 0l-338 594l-115 -594h-229l260 1348h494q98 0 179 -32t134 -91q86 -90 86 -221q0 -33 -6 -68q-25 -127 -125 -229q-84 -88 -197 -127q-41 -14 -90 -24.5t-72 -10.5l304 -545h-285zM399 1116l-69 -362h200q123 0 199 32q47 18 88 59.5t51 90.5q2 8 2 27q0 53 -36 92 q-55 61 -172 61h-263z" glyph-name="r" horiz-adv-x="1259" unicode="r"/><glyph d="M966 603q42 -71 42 -152q0 -33 -7 -64q-16 -84 -73.5 -160.5t-145.5 -134.5q-166 -106 -364 -106q-96 0 -180 27.5t-144 78.5q-84 72 -102 172l227 117q-2 -33 12.5 -59.5t34.5 -42.5q35 -29 87.5 -45.5t109.5 -16.5q59 0 115.5 16.5t101.5 45.5q78 51 90 108l2 19 q0 33 -19.5 62.5t-56.5 49.5q-39 25 -184 43q-164 18 -242 60q-84 45 -129 117.5t-45 160.5q0 31 6 64q16 84 72.5 160.5t144.5 133.5q82 51 176.5 79t190.5 28t179 -27.5t143 -79.5q84 -70 104 -174l-229 -118q6 57 -47 106q-74 61 -195 62q-59 0 -116.5 -16.5 t-102.5 -45.5q-78 -51 -90 -108l-2 -19q0 -35 22.5 -66.5t63.5 -50.5q29 -14 62.5 -21t111.5 -18q178 -23 256 -67q78 -47 120 -118z" glyph-name="s" horiz-adv-x="1286" unicode="s"/><glyph d="M1184 1348l-45 -232h-406l-217 -1116h-229l217 1116h-404l45 232h1039z" glyph-name="t" horiz-adv-x="1239" unicode="t"/><glyph d="M693.5 29q-105.5 -41 -212.5 -41q-109 0 -198.5 41t-147.5 116q-92 121 -92 277q0 47 10 104l160 822h231l-159 -822q-6 -31 -6 -63q0 -88 51 -156q74 -90 196 -90q59 0 119 23.5t109 66.5q104 86 131 219l159 822h232l-160 -822q-23 -109 -81 -207t-146 -174 q-90 -75 -195.5 -116z" glyph-name="u" unicode="u"/><glyph d="M584 539l516 809h252l-879 -1379l-342 1379h250z" glyph-name="v" unicode="v"/><glyph d="M1139 618l385 730h243l-729 -1379l-194 811l-510 -811l-197 1379h244l102 -734l475 754z" glyph-name="w" horiz-adv-x="1814" unicode="w"/><glyph d="M1049 0h-273l-219 467l-399 -467h-273l576 676l-311 672h274l215 -465l397 465h275l-576 -672z" glyph-name="x" horiz-adv-x="1368" unicode="x"/><glyph d="M682 694l532 654h277l-741 -897l-88 -451h-230l88 451l-387 897h275z" glyph-name="y" horiz-adv-x="1533" unicode="y"/><glyph d="M895 0h-958l798 1116h-579l45 232h958l-799 -1119h580z" glyph-name="z" horiz-adv-x="1267" unicode="z"/><glyph d="M340 348q0 -35 23.5 -65.5t62.5 -49.5l-47 -241q-125 31 -199 116t-74 195q0 33 7 64l37 190l-93 121l140 123l36 184q25 131 139.5 236.5t272.5 140.5l-47 -242q-53 -23 -90 -59.5t-45 -75.5l-41 -205q-8 -47 -53 -100q16 -35 16 -74q0 -18 -2 -28l-41 -211 q-2 -7 -2 -19z" glyph-name="braceleft" horiz-adv-x="741" unicode="{"/><glyph d="M199 0h-232l262 1348h232z" glyph-name="bar" horiz-adv-x="600" unicode="|"/><glyph d="M63.5 291q36.5 37 45.5 76l41 211q10 51 55 102q-18 41 -19 74q0 16 2 26l41 205q2 6 2 19q0 35 -23.5 66.5t-64.5 49.5l47 242q127 -31 202 -117t75 -198q0 -31 -6 -62l-37 -184l90 -123l-137 -121l-37 -190q-27 -131 -142.5 -235.5t-273.5 -139.5l47 241q56 21 92.5 58 z" glyph-name="braceright" horiz-adv-x="743" unicode="}"/><glyph d="M376 1151q-40 -35 -87 -35q-41 0 -67.5 26.5t-26.5 67.5q0 14 2 23q10 47 50 81t87 34q41 0 67.5 -27t26.5 -66q0 -14 -2 -22q-10 -47 -50 -82zM-43 0l45 229l182 789h170l-123 -789l-45 -229h-229z" glyph-name="exclamdown" horiz-adv-x="577" unicode="¡"/><glyph d="M913.5 81.5q-120.5 -63.5 -247.5 -83.5l-39 -199h-230l39 201q-131 25 -231.5 101.5t-155.5 191.5t-55 252q0 63 12 131q33 164 134.5 308t249 240.5t308.5 125.5l39 200h230l-39 -198q109 -18 200 -73.5t152 -141.5l-203 -154q-49 70 -128 108.5t-175 38.5 q-121 0 -236.5 -61t-195.5 -165.5t-104 -227.5q-8 -41 -9 -88q0 -104 47.5 -188.5t131.5 -132.5t190 -48q102 0 202.5 44t180.5 126l152 -143q-99 -101 -219.5 -164.5z" glyph-name="cent" horiz-adv-x="1394" unicode="¢"/><glyph d="M885 229l-45 -229h-891l45 229h51q61 0 121.5 31t101.5 77t51 91q10 72 25 143h-217l45 230h217l17 88q10 41 10 51q14 80 67.5 158t132.5 141q80 63 169 96t180 33h106l-45 -229h-106q-53 0 -112.5 -28t-105 -74t-55.5 -97q0 -10 -10 -51l-16 -88h204l-45 -230h-205 l-26 -143q-23 -104 -98 -199h434z" glyph-name="sterling" horiz-adv-x="1222" unicode="£"/><glyph d="M596 724q-72 -32 -145 -32q-117 0 -191 75t-74 187q0 31 7 64q16 88 73.5 161.5t139 117.5t169.5 44q68 0 126.5 -27.5t93.5 -78.5l-201 -154q-23 31 -62 31t-70.5 -27.5t-39.5 -66.5q-2 -6 -2 -19q0 -33 21.5 -54t54.5 -21q43 0 77 34l152 -143q-57 -59 -129 -91z M649.5 665.5q-104.5 -55.5 -215.5 -55.5q-98 0 -175 43t-120 119t-43 168q0 45 8 80q20 111 94 205t179.5 149.5t216.5 55.5q98 0 175 -43.5t120 -119t43 -169.5q0 -25 -8 -78q-23 -111 -96.5 -205t-178 -149.5zM807 1307q-86 86 -221 86q-100 0 -195.5 -50.5t-163 -136.5 t-86.5 -186q-8 -49 -8 -72q0 -129 86 -215t221 -86q100 0 195.5 50.5t163 136.5t88.5 186q6 37 6 70q0 131 -86 217z" glyph-name="copyright" horiz-adv-x="1064" unicode="©"/><glyph d="M735 434l-55 -284l-623 526l828 520l-56 -283l-378 -239zM1331 434l-55 -284l-621 524l826 522l-56 -283l-378 -239z" glyph-name="guillemotleft" horiz-adv-x="1607" unicode="«"/><glyph d="M526.5 852q-77.5 -41 -159.5 -41q-109 0 -179.5 70.5t-70.5 175.5q0 29 6 59q16 82 70.5 152.5t132 111.5t159.5 41q111 0 180.5 -69.5t69.5 -175.5q0 -29 -6 -60q-16 -82 -70.5 -152.5t-132 -111.5zM488.5 1169.5q-17.5 22.5 -48.5 22.5t-56.5 -22.5t-31.5 -53.5 t11.5 -52.5t48.5 -21.5t56.5 21.5t31.5 52.5t-11.5 53.5z" glyph-name="degree" horiz-adv-x="851" unicode="°"/><glyph d="M104 918l56 282l620 -524l-823 -522l55 284l375 238zM700 915l56 285l620 -524l-823 -522l53 282l379 240z" glyph-name="guillemotright" horiz-adv-x="1605" unicode="»"/><glyph d="M522 979l10 51h199l-10 -51q-25 -123 -81 -189.5t-144 -125.5l-56 -39q-86 -59 -129 -105.5t-55 -109.5q-4 -20 -4 -31q0 -55 41 -100q66 -61 166 -62q104 0 188 62q74 55 90 131h230q-18 -88 -72 -170q-51 -76 -131 -134q-76 -57 -167 -87.5t-183 -30.5t-170 30.5 t-133 87.5t-78 134q-14 43 -15 94q0 43 9 76q18 96 69 170.5t104.5 121t129.5 101.5l57 39q29 20 43 28q43 27 64.5 48.5t27.5 60.5zM724 1162q-40 -34 -87 -34q-41 0 -68.5 27t-27.5 68q0 14 2 20q10 47 51 82t88 35q39 0 65.5 -26.5t26.5 -67.5q0 -14 -2 -23 q-8 -47 -48 -81z" glyph-name="questiondown" horiz-adv-x="1226" unicode="¿"/><glyph d="M715 1470l-209 236h250l143 -236h-184zM252 184l-123 -184h-254l887 1348l332 -1348h-252l-45 184h-545zM647 788l-244 -372h336z" glyph-name="Agrave" horiz-adv-x="1402" unicode="À"/><glyph d="M694 1470l236 234h248l-299 -234h-185zM252 184l-123 -184h-254l887 1348l332 -1348h-252l-45 184h-545zM647 788l-244 -372h336z" glyph-name="Aacute" horiz-adv-x="1402" unicode="Á"/><glyph d="M1104 1470h-184l-107 117l-151 -117h-185l234 232h250zM252 184l-123 -184h-254l887 1348l332 -1348h-252l-45 184h-545zM647 788l-244 -372h336z" glyph-name="Acircumflex" horiz-adv-x="1402" unicode="Â"/><glyph d="M1042 1507q-72 -37 -147 -37q-92 0 -158 58q-25 23 -57 22q-27 0 -55 -14q-25 -12 -44 -28q-19 -15 -24 -19l-125 110q-4 4 40 38t95 61q82 39 150 39q90 0 153 -58q33 -27 64 -26q20 0 47 16l72 49l127 -110q4 -4 -41 -39q-46 -35 -97 -62zM252 184l-123 -184h-254 l887 1348l332 -1348h-252l-45 184h-545zM647 788l-244 -372h336z" glyph-name="Atilde" horiz-adv-x="1402" unicode="Ã"/><glyph d="M538 1652q38 32 80 31q39 0 64 -24q25 -25 25 -64q0 -12 -2 -18q-10 -43 -48 -75q-37 -32 -79 -32q-39 0 -64 26t-25 60q0 14 3 21q8 43 46 75zM969 1653q37 31 82 30q39 0 63 -24q25 -25 25 -64q0 -12 -2 -18q-10 -43 -47 -75t-80 -32q-39 0 -64 26t-24 60q0 14 2 21 q8 45 45 76zM252 184l-123 -184h-254l887 1348l332 -1348h-252l-45 184h-545zM647 788l-244 -372h336z" glyph-name="Adieresis" horiz-adv-x="1402" unicode="Ä"/><glyph d="M964 1534q-75 -63 -163 -64q-78 0 -128 51q-50 50 -50 124q0 12 4 41q16 88 92 150t164 62q76 0 126 -50t50 -124q0 -10 -4 -38q-16 -89 -91 -152zM866 1706q-6 8 -18 8t-24 -8q-11 -8 -13 -20t5 -22q7 -9 20 -9q12 0 21 9t13 22q2 12 -4 20zM252 184l-123 -184h-254 l887 1348l332 -1348h-252l-45 184h-545zM647 788l-244 -372h336z" glyph-name="Aring" horiz-adv-x="1402" unicode="Å"/><glyph d="M1667 1118h-620l-64 -327h467l-45 -230h-467l-64 -330h621l-45 -231h-852l43 219h-367l-145 -219h-254l887 1348h950zM426 451h260l109 565z" glyph-name="AE" horiz-adv-x="1832" unicode="Æ"/><glyph d="M860.5 55.5q151.5 67.5 272.5 188.5l-152 143q-80 -80 -180.5 -125t-202.5 -45q-109 0 -192.5 48t-131 133t-47.5 190q0 47 9 88q25 123 105.5 228.5t196 167t238.5 61.5q94 0 173 -39t130 -111l201 154q-76 106 -195.5 165.5t-265.5 59.5q-184 0 -358 -92t-296 -250 t-159 -344q-12 -68 -12 -133q0 -156 71.5 -283t198.5 -199.5t289 -72.5q156 0 307.5 67.5zM649 -311q-82 -57 -180 -58q-47 0 -88 15.5t-68 42.5q-53 49 -53 123q0 12 4 36h174q-4 -14 15.5 -28.5t50.5 -14.5t54.5 14.5t27.5 28.5q2 14 -16.5 27.5t-49.5 13.5h-86l37 193 h174l-6 -31q47 -18 72 -43q53 -49 53 -123q0 -12 -4 -37q-19 -96 -111 -159z" glyph-name="Ccedilla" horiz-adv-x="1394" unicode="Ç"/><glyph d="M584 1470l-209 236h250l143 -236h-184zM803 0h-852l262 1348h852l-45 -232h-621l-63 -325h467l-45 -232h-467l-64 -330h621z" glyph-name="Egrave" horiz-adv-x="1185" unicode="È"/><glyph d="M571 1470l236 234h248l-299 -234h-185zM803 0h-852l262 1348h852l-45 -232h-621l-63 -325h467l-45 -232h-467l-64 -330h621z" glyph-name="Eacute" horiz-adv-x="1185" unicode="É"/><glyph d="M981 1470h-184l-107 117l-151 -117h-185l234 232h250zM803 0h-852l262 1348h852l-45 -232h-621l-63 -325h467l-45 -232h-467l-64 -330h621z" glyph-name="Ecircumflex" horiz-adv-x="1185" unicode="Ê"/><glyph d="M415 1652q38 32 81 31q39 0 63 -24q25 -25 25 -64q0 -12 -2 -18q-10 -43 -47 -75t-80 -32q-39 0 -64 26t-24 60q0 14 2 21q8 43 46 75zM846 1653q37 31 82 30q39 0 63 -24q25 -25 25 -64q0 -12 -2 -18q-10 -43 -47 -75t-80 -32q-39 0 -64 26t-24 60q0 14 2 21q8 45 45 76 zM803 0h-852l262 1348h852l-45 -232h-621l-63 -325h467l-45 -232h-467l-64 -330h621z" glyph-name="Edieresis" horiz-adv-x="1185" unicode="Ë"/><glyph d="M223 0h-231l262 1348h231zM289 1470l-209 236h250l143 -236h-184z" glyph-name="Igrave" horiz-adv-x="630" unicode="Ì"/><glyph d="M205 0h-232l263 1348h231zM285 1470l235 234h248l-299 -234h-184z" glyph-name="Iacute" horiz-adv-x="606" unicode="Í"/><glyph d="M199 0h-232l262 1348h232zM682 1470h-184l-107 117l-151 -117h-185l234 232h250z" glyph-name="Icircumflex" horiz-adv-x="606" unicode="Î"/><glyph d="M195 0h-232l262 1348h232zM112 1651.5q38 31.5 81 31.5q39 0 63.5 -24.5t24.5 -63.5q0 -12 -2 -18q-10 -43 -47 -75t-80 -32q-37 0 -63 26t-26 60q0 14 3 21q8 43 46 74.5zM543 1652.5q37 30.5 82 30.5q39 0 63.5 -24.5t24.5 -63.5q0 -12 -2 -18q-10 -43 -47 -75t-80 -32 q-37 0 -62.5 26t-25.5 60q0 14 2 21q8 45 45 75.5z" glyph-name="Idieresis" horiz-adv-x="604" unicode="Ï"/><glyph d="M1309 819q0 -74 -15 -143q-27 -133 -94 -254t-168 -215q-111 -100 -245 -153.5t-277 -53.5h-420l109 559h-140l45 229h140l108 560h420q143 0 256 -53.5t184 -153.5q97 -134 97 -322zM1002.5 504q46.5 82 62.5 172q10 55 10 96q0 123 -63 215q-45 63 -118 96t-167 33 h-190l-64 -328h356l-45 -229h-356l-63 -330h190q186 0 334 131q67 62 113.5 144z" glyph-name="Eth" horiz-adv-x="1482" unicode="Ð"/><glyph d="M1022 1507q-72 -37 -148 -37q-92 0 -157 58q-25 23 -58 22q-27 0 -55 -14q-25 -12 -44 -28q-19 -15 -23 -19l-125 110q-4 4 40 38t95 61q82 39 149 39q90 0 154 -58q33 -27 63 -26q20 0 48 16l71 49l127 -110q4 -4 -41 -39t-96 -62zM1008 -31l-670 832l-156 -801h-229 l266 1368l670 -831l158 811h229z" glyph-name="Ntilde" unicode="Ñ"/><glyph d="M748 1470l-209 236h249l144 -236h-184zM914 80q-175 -92 -359 -92q-162 0 -290 72q-128 73 -199 199q-72 126 -72 284q0 63 12 131q37 186 159 344t297 250t359 92q164 0 291 -72t199 -198q72 -127 71 -283q0 -66 -12 -133q-37 -186 -159 -344t-297 -250zM969 1082 q-84 48 -193 48q-123 0 -237 -61q-115 -61 -196 -167q-81 -105 -105 -228q-8 -41 -9 -88q0 -104 47 -189q47 -84 132 -132q84 -48 192 -48q123 0 238 62q115 61 195 165q81 104 106 230q8 41 8 88q0 104 -47 188t-131 132z" glyph-name="Ograve" horiz-adv-x="1548" unicode="Ò"/><glyph d="M750 1470l235 234h248l-299 -234h-184zM914 80q-175 -92 -359 -92q-162 0 -290 72q-128 73 -199 199q-72 126 -72 284q0 63 12 131q37 186 159 344t297 250t359 92q164 0 291 -72t199 -198q72 -127 71 -283q0 -66 -12 -133q-37 -186 -159 -344t-297 -250zM969 1082 q-84 48 -193 48q-123 0 -237 -61q-115 -61 -196 -167q-81 -105 -105 -228q-8 -41 -9 -88q0 -104 47 -189q47 -84 132 -132q84 -48 192 -48q123 0 238 62q115 61 195 165q81 104 106 230q8 41 8 88q0 104 -47 188t-131 132z" glyph-name="Oacute" horiz-adv-x="1548" unicode="Ó"/><glyph d="M1159 1470h-184l-107 117l-151 -117h-185l234 232h250zM914 80q-175 -92 -359 -92q-162 0 -290 72q-128 73 -199 199q-72 126 -72 284q0 63 12 131q37 186 159 344t297 250t359 92q164 0 291 -72t199 -198q72 -127 71 -283q0 -66 -12 -133q-37 -186 -159 -344t-297 -250z M969 1082q-84 48 -193 48q-123 0 -237 -61q-115 -61 -196 -167q-81 -105 -105 -228q-8 -41 -9 -88q0 -104 47 -189q47 -84 132 -132q84 -48 192 -48q123 0 238 62q115 61 195 165q81 104 106 230q8 41 8 88q0 104 -47 188t-131 132z" glyph-name="Ocircumflex" horiz-adv-x="1548" unicode="Ô"/><glyph d="M1090 1507q-72 -37 -148 -37q-92 0 -158 58q-25 23 -57 22q-27 0 -55 -14q-25 -12 -44 -28q-19 -15 -24 -19l-125 110q-4 4 40 38t95 61q82 39 150 39q90 0 154 -58q33 -27 63 -26q20 0 47 16l72 49l127 -110q4 -4 -41 -39t-96 -62zM914 80q-175 -92 -359 -92 q-162 0 -290 72q-128 73 -199 199q-72 126 -72 284q0 63 12 131q37 186 159 344t297 250t359 92q164 0 291 -72t199 -198q72 -127 71 -283q0 -66 -12 -133q-37 -186 -159 -344t-297 -250zM969 1082q-84 48 -193 48q-123 0 -237 -61q-115 -61 -196 -167q-81 -105 -105 -228 q-8 -41 -9 -88q0 -104 47 -189q47 -84 132 -132q84 -48 192 -48q123 0 238 62q115 61 195 165q81 104 106 230q8 41 8 88q0 104 -47 188t-131 132z" glyph-name="Otilde" horiz-adv-x="1548" unicode="Õ"/><glyph d="M583 1652q38 32 81 31q39 0 63 -24q25 -25 25 -64q0 -12 -2 -18q-10 -43 -48 -75q-37 -32 -79 -32q-39 0 -64 26t-24 60q0 14 2 21q8 43 46 75zM1014 1653q37 31 82 30q39 0 63 -24q25 -25 25 -64q0 -12 -2 -18q-10 -43 -47 -75t-80 -32q-39 0 -64 26t-24 60q0 14 2 21 q8 45 45 76zM914 80q-175 -92 -359 -92q-162 0 -290 72q-128 73 -199 199q-72 126 -72 284q0 63 12 131q37 186 159 344t297 250t359 92q164 0 291 -72t199 -198q72 -127 71 -283q0 -66 -12 -133q-37 -186 -159 -344t-297 -250zM969 1082q-84 48 -193 48q-123 0 -237 -61 q-115 -61 -196 -167q-81 -105 -105 -228q-8 -41 -9 -88q0 -104 47 -189q47 -84 132 -132q84 -48 192 -48q123 0 238 62q115 61 195 165q81 104 106 230q8 41 8 88q0 104 -47 188t-131 132z" glyph-name="Odieresis" horiz-adv-x="1548" unicode="Ö"/><glyph d="M748 850l-211 -174l143 -174l-197 -164l-139 174l-211 -174l-131 162l211 176l-141 174l192 164l144 -176l206 176z" glyph-name="multiply" horiz-adv-x="921" unicode="×"/><glyph d="M1345.5 1024q38.5 -98 38.5 -211q0 -55 -14 -135q-37 -186 -158.5 -344t-297 -250t-359.5 -92q-123 0 -231 45l-29 -37h-268l120 154q-74 76 -113.5 178t-39.5 219q0 63 12 127q37 186 160 344t297 250t360 92q127 0 236 -45l24 29h267l-115 -150q72 -76 110.5 -174z M229 592q0 -135 78 -236l594 760q-59 18 -123 19q-123 0 -238.5 -61.5t-196.5 -166t-105 -229.5q-9 -39 -9 -86zM837.5 282.5q114.5 61.5 195.5 167t106 228.5q8 41 8 90q0 133 -72 227l-592 -755q53 -18 117 -19q123 0 237.5 61.5z" glyph-name="Oslash" horiz-adv-x="1548" unicode="Ø"/><glyph d="M682 1470l-209 236h250l143 -236h-184zM693 29q-105 -41 -212 -41q-109 0 -198 41q-90 41 -148 116q-92 121 -92 277q0 47 10 104l160 822h231l-159 -822q-6 -31 -6 -63q0 -88 51 -156q74 -90 196 -90q59 0 119 24q59 24 109 66q104 86 131 219l159 822h232l-160 -822 q-23 -109 -81 -207t-146 -174q-91 -75 -196 -116z" glyph-name="Ugrave" unicode="Ù"/><glyph d="M670 1470l235 234h248l-299 -234h-184zM693 29q-105 -41 -212 -41q-109 0 -198 41q-90 41 -148 116q-92 121 -92 277q0 47 10 104l160 822h231l-159 -822q-6 -31 -6 -63q0 -88 51 -156q74 -90 196 -90q59 0 119 24q59 24 109 66q104 86 131 219l159 822h232l-160 -822 q-23 -109 -81 -207t-146 -174q-91 -75 -196 -116z" glyph-name="Uacute" unicode="Ú"/><glyph d="M1081 1470h-184l-106 117l-152 -117h-184l233 232h250zM693 29q-105 -41 -212 -41q-109 0 -198 41q-90 41 -148 116q-92 121 -92 277q0 47 10 104l160 822h231l-159 -822q-6 -31 -6 -63q0 -88 51 -156q74 -90 196 -90q59 0 119 24q59 24 109 66q104 86 131 219l159 822 h232l-160 -822q-23 -109 -81 -207t-146 -174q-91 -75 -196 -116z" glyph-name="Ucircumflex" unicode="Û"/><glyph d="M513 1652q38 32 81 31q39 0 63 -24q25 -25 25 -64q0 -12 -2 -18q-10 -43 -47 -75t-80 -32q-39 0 -64 26t-24 60q0 14 2 21q8 43 46 75zM944 1653q37 31 82 30q39 0 64 -24q25 -25 24 -64q0 -12 -2 -18q-10 -43 -47 -75t-80 -32q-39 0 -63 26q-25 26 -25 60q0 14 2 21 q8 45 45 76zM693 29q-105 -41 -212 -41q-109 0 -198 41q-90 41 -148 116q-92 121 -92 277q0 47 10 104l160 822h231l-159 -822q-6 -31 -6 -63q0 -88 51 -156q74 -90 196 -90q59 0 119 24q59 24 109 66q104 86 131 219l159 822h232l-160 -822q-23 -109 -81 -207t-146 -174 q-91 -75 -196 -116z" glyph-name="Udieresis" unicode="Ü"/><glyph d="M766 1470l235 234h248l-299 -234h-184zM682 694l532 654h277l-741 -897l-88 -451h-230l88 451l-387 897h275z" glyph-name="Yacute" horiz-adv-x="1533" unicode="Ý"/><glyph d="M1026 479q0 -33 -6 -67q-16 -80 -65.5 -156t-125.5 -133q-78 -59 -171 -91t-191 -32h-102l45 229h102q115 0 197 64q68 51 79 119q2 8 3 24q0 41 -25 75t-59 50q-66 33 -187 33h-41l45 231q68 4 122 46t65 100q2 8 2 24q0 51 -41 85t-103 34q-70 0 -127 -41t-71 -100 l-189 -973h-231l190 971q16 76 60.5 145.5t113.5 122.5q63 51 141.5 77.5t157.5 26.5q78 0 144.5 -26.5t113.5 -77.5q74 -82 74 -199q0 -35 -6 -69q-23 -111 -98 -199q92 -45 141 -131q43 -74 43 -162z" glyph-name="germandbls" horiz-adv-x="1259" unicode="ß"/><glyph d="M715 1470l-209 236h250l143 -236h-184zM252 184l-123 -184h-254l887 1348l332 -1348h-252l-45 184h-545zM647 788l-244 -372h336z" glyph-name="agrave" horiz-adv-x="1402" unicode="à"/><glyph d="M694 1470l236 234h248l-299 -234h-185zM252 184l-123 -184h-254l887 1348l332 -1348h-252l-45 184h-545zM647 788l-244 -372h336z" glyph-name="aacute" horiz-adv-x="1402" unicode="á"/><glyph d="M1104 1470h-184l-107 117l-151 -117h-185l234 232h250zM252 184l-123 -184h-254l887 1348l332 -1348h-252l-45 184h-545zM647 788l-244 -372h336z" glyph-name="acircumflex" horiz-adv-x="1402" unicode="â"/><glyph d="M1042 1507q-72 -37 -147 -37q-92 0 -158 58q-25 23 -57 22q-27 0 -55 -14q-25 -12 -44 -28q-19 -15 -24 -19l-125 110q-4 4 40 38t95 61q82 39 150 39q90 0 153 -58q33 -27 64 -26q20 0 47 16l72 49l127 -110q4 -4 -41 -39q-46 -35 -97 -62zM252 184l-123 -184h-254 l887 1348l332 -1348h-252l-45 184h-545zM647 788l-244 -372h336z" glyph-name="atilde" horiz-adv-x="1402" unicode="ã"/><glyph d="M538 1652q38 32 80 31q39 0 64 -24q25 -25 25 -64q0 -12 -2 -18q-10 -43 -48 -75q-37 -32 -79 -32q-39 0 -64 26t-25 60q0 14 3 21q8 43 46 75zM969 1653q37 31 82 30q39 0 63 -24q25 -25 25 -64q0 -12 -2 -18q-10 -43 -47 -75t-80 -32q-39 0 -64 26t-24 60q0 14 2 21 q8 45 45 76zM252 184l-123 -184h-254l887 1348l332 -1348h-252l-45 184h-545zM647 788l-244 -372h336z" glyph-name="adieresis" horiz-adv-x="1402" unicode="ä"/><glyph d="M964 1534q-75 -63 -163 -64q-78 0 -128 51q-50 50 -50 124q0 12 4 41q16 88 92 150t164 62q76 0 126 -50t50 -124q0 -10 -4 -38q-16 -89 -91 -152zM866 1706q-6 8 -18 8t-24 -8q-11 -8 -13 -20t5 -22q7 -9 20 -9q12 0 21 9t13 22q2 12 -4 20zM252 184l-123 -184h-254 l887 1348l332 -1348h-252l-45 184h-545zM647 788l-244 -372h336z" glyph-name="aring" horiz-adv-x="1402" unicode="å"/><glyph d="M1667 1118h-620l-64 -327h467l-45 -230h-467l-64 -330h621l-45 -231h-852l43 219h-367l-145 -219h-254l887 1348h950zM426 451h260l109 565z" glyph-name="ae" horiz-adv-x="1832" unicode="æ"/><glyph d="M860.5 55.5q151.5 67.5 272.5 188.5l-152 143q-80 -80 -180.5 -125t-202.5 -45q-109 0 -192.5 48t-131 133t-47.5 190q0 47 9 88q25 123 105.5 228.5t196 167t238.5 61.5q94 0 173 -39t130 -111l201 154q-76 106 -195.5 165.5t-265.5 59.5q-184 0 -358 -92t-296 -250 t-159 -344q-12 -68 -12 -133q0 -156 71.5 -283t198.5 -199.5t289 -72.5q156 0 307.5 67.5zM649 -311q-82 -57 -180 -58q-47 0 -88 15.5t-68 42.5q-53 49 -53 123q0 12 4 36h174q-4 -14 15.5 -28.5t50.5 -14.5t54.5 14.5t27.5 28.5q2 14 -16.5 27.5t-49.5 13.5h-86l37 193 h174l-6 -31q47 -18 72 -43q53 -49 53 -123q0 -12 -4 -37q-19 -96 -111 -159z" glyph-name="ccedilla" horiz-adv-x="1394" unicode="ç"/><glyph d="M584 1470l-209 236h250l143 -236h-184zM803 0h-852l262 1348h852l-45 -232h-621l-63 -325h467l-45 -232h-467l-64 -330h621z" glyph-name="egrave" horiz-adv-x="1185" unicode="è"/><glyph d="M571 1470l236 234h248l-299 -234h-185zM803 0h-852l262 1348h852l-45 -232h-621l-63 -325h467l-45 -232h-467l-64 -330h621z" glyph-name="eacute" horiz-adv-x="1185" unicode="é"/><glyph d="M981 1470h-184l-107 117l-151 -117h-185l234 232h250zM803 0h-852l262 1348h852l-45 -232h-621l-63 -325h467l-45 -232h-467l-64 -330h621z" glyph-name="ecircumflex" horiz-adv-x="1185" unicode="ê"/><glyph d="M415 1652q38 32 81 31q39 0 63 -24q25 -25 25 -64q0 -12 -2 -18q-10 -43 -47 -75t-80 -32q-39 0 -64 26t-24 60q0 14 2 21q8 43 46 75zM846 1653q37 31 82 30q39 0 63 -24q25 -25 25 -64q0 -12 -2 -18q-10 -43 -47 -75t-80 -32q-39 0 -64 26t-24 60q0 14 2 21q8 45 45 76 zM803 0h-852l262 1348h852l-45 -232h-621l-63 -325h467l-45 -232h-467l-64 -330h621z" glyph-name="edieresis" horiz-adv-x="1185" unicode="ë"/><glyph d="M223 0h-231l262 1348h231zM289 1470l-209 236h250l143 -236h-184z" glyph-name="igrave" horiz-adv-x="630" unicode="ì"/><glyph d="M205 0h-232l263 1348h231zM285 1470l235 234h248l-299 -234h-184z" glyph-name="iacute" horiz-adv-x="606" unicode="í"/><glyph d="M199 0h-232l262 1348h232zM682 1470h-184l-107 117l-151 -117h-185l234 232h250z" glyph-name="icircumflex" horiz-adv-x="606" unicode="î"/><glyph d="M195 0h-232l262 1348h232zM112 1651.5q38 31.5 81 31.5q39 0 63.5 -24.5t24.5 -63.5q0 -12 -2 -18q-10 -43 -47 -75t-80 -32q-37 0 -63 26t-26 60q0 14 3 21q8 43 46 74.5zM543 1652.5q37 30.5 82 30.5q39 0 63.5 -24.5t24.5 -63.5q0 -12 -2 -18q-10 -43 -47 -75t-80 -32 q-37 0 -62.5 26t-25.5 60q0 14 2 21q8 45 45 75.5z" glyph-name="idieresis" horiz-adv-x="604" unicode="ï"/><glyph d="M1022 1507q-72 -37 -148 -37q-92 0 -157 58q-25 23 -58 22q-27 0 -55 -14q-25 -12 -44 -28q-19 -15 -23 -19l-125 110q-4 4 40 38t95 61q82 39 149 39q90 0 154 -58q33 -27 63 -26q20 0 48 16l71 49l127 -110q4 -4 -41 -39t-96 -62zM1008 -31l-670 832l-156 -801h-229 l266 1368l670 -831l158 811h229z" glyph-name="ntilde" unicode="ñ"/><glyph d="M748 1470l-209 236h249l144 -236h-184zM914 80q-175 -92 -359 -92q-162 0 -290 72q-128 73 -199 199q-72 126 -72 284q0 63 12 131q37 186 159 344t297 250t359 92q164 0 291 -72t199 -198q72 -127 71 -283q0 -66 -12 -133q-37 -186 -159 -344t-297 -250zM969 1082 q-84 48 -193 48q-123 0 -237 -61q-115 -61 -196 -167q-81 -105 -105 -228q-8 -41 -9 -88q0 -104 47 -189q47 -84 132 -132q84 -48 192 -48q123 0 238 62q115 61 195 165q81 104 106 230q8 41 8 88q0 104 -47 188t-131 132z" glyph-name="ograve" horiz-adv-x="1548" unicode="ò"/><glyph d="M750 1470l235 234h248l-299 -234h-184zM914 80q-175 -92 -359 -92q-162 0 -290 72q-128 73 -199 199q-72 126 -72 284q0 63 12 131q37 186 159 344t297 250t359 92q164 0 291 -72t199 -198q72 -127 71 -283q0 -66 -12 -133q-37 -186 -159 -344t-297 -250zM969 1082 q-84 48 -193 48q-123 0 -237 -61q-115 -61 -196 -167q-81 -105 -105 -228q-8 -41 -9 -88q0 -104 47 -189q47 -84 132 -132q84 -48 192 -48q123 0 238 62q115 61 195 165q81 104 106 230q8 41 8 88q0 104 -47 188t-131 132z" glyph-name="oacute" horiz-adv-x="1548" unicode="ó"/><glyph d="M1159 1470h-184l-107 117l-151 -117h-185l234 232h250zM914 80q-175 -92 -359 -92q-162 0 -290 72q-128 73 -199 199q-72 126 -72 284q0 63 12 131q37 186 159 344t297 250t359 92q164 0 291 -72t199 -198q72 -127 71 -283q0 -66 -12 -133q-37 -186 -159 -344t-297 -250z M969 1082q-84 48 -193 48q-123 0 -237 -61q-115 -61 -196 -167q-81 -105 -105 -228q-8 -41 -9 -88q0 -104 47 -189q47 -84 132 -132q84 -48 192 -48q123 0 238 62q115 61 195 165q81 104 106 230q8 41 8 88q0 104 -47 188t-131 132z" glyph-name="ocircumflex" horiz-adv-x="1548" unicode="ô"/><glyph d="M1090 1507q-72 -37 -148 -37q-92 0 -158 58q-25 23 -57 22q-27 0 -55 -14q-25 -12 -44 -28q-19 -15 -24 -19l-125 110q-4 4 40 38t95 61q82 39 150 39q90 0 154 -58q33 -27 63 -26q20 0 47 16l72 49l127 -110q4 -4 -41 -39t-96 -62zM914 80q-175 -92 -359 -92 q-162 0 -290 72q-128 73 -199 199q-72 126 -72 284q0 63 12 131q37 186 159 344t297 250t359 92q164 0 291 -72t199 -198q72 -127 71 -283q0 -66 -12 -133q-37 -186 -159 -344t-297 -250zM969 1082q-84 48 -193 48q-123 0 -237 -61q-115 -61 -196 -167q-81 -105 -105 -228 q-8 -41 -9 -88q0 -104 47 -189q47 -84 132 -132q84 -48 192 -48q123 0 238 62q115 61 195 165q81 104 106 230q8 41 8 88q0 104 -47 188t-131 132z" glyph-name="otilde" horiz-adv-x="1548" unicode="õ"/><glyph d="M583 1652q38 32 81 31q39 0 63 -24q25 -25 25 -64q0 -12 -2 -18q-10 -43 -48 -75q-37 -32 -79 -32q-39 0 -64 26t-24 60q0 14 2 21q8 43 46 75zM1014 1653q37 31 82 30q39 0 63 -24q25 -25 25 -64q0 -12 -2 -18q-10 -43 -47 -75t-80 -32q-39 0 -64 26t-24 60q0 14 2 21 q8 45 45 76zM914 80q-175 -92 -359 -92q-162 0 -290 72q-128 73 -199 199q-72 126 -72 284q0 63 12 131q37 186 159 344t297 250t359 92q164 0 291 -72t199 -198q72 -127 71 -283q0 -66 -12 -133q-37 -186 -159 -344t-297 -250zM969 1082q-84 48 -193 48q-123 0 -237 -61 q-115 -61 -196 -167q-81 -105 -105 -228q-8 -41 -9 -88q0 -104 47 -189q47 -84 132 -132q84 -48 192 -48q123 0 238 62q115 61 195 165q81 104 106 230q8 41 8 88q0 104 -47 188t-131 132z" glyph-name="odieresis" horiz-adv-x="1548" unicode="ö"/><glyph d="M1345.5 1024q38.5 -98 38.5 -211q0 -55 -14 -135q-37 -186 -158.5 -344t-297 -250t-359.5 -92q-123 0 -231 45l-29 -37h-268l120 154q-74 76 -113.5 178t-39.5 219q0 63 12 127q37 186 160 344t297 250t360 92q127 0 236 -45l24 29h267l-115 -150q72 -76 110.5 -174z M229 592q0 -135 78 -236l594 760q-59 18 -123 19q-123 0 -238.5 -61.5t-196.5 -166t-105 -229.5q-9 -39 -9 -86zM837.5 282.5q114.5 61.5 195.5 167t106 228.5q8 41 8 90q0 133 -72 227l-592 -755q53 -18 117 -19q123 0 237.5 61.5z" glyph-name="oslash" horiz-adv-x="1548" unicode="ø"/><glyph d="M682 1470l-209 236h250l143 -236h-184zM693 29q-105 -41 -212 -41q-109 0 -198 41q-90 41 -148 116q-92 121 -92 277q0 47 10 104l160 822h231l-159 -822q-6 -31 -6 -63q0 -88 51 -156q74 -90 196 -90q59 0 119 24q59 24 109 66q104 86 131 219l159 822h232l-160 -822 q-23 -109 -81 -207t-146 -174q-91 -75 -196 -116z" glyph-name="ugrave" unicode="ù"/><glyph d="M670 1470l235 234h248l-299 -234h-184zM693 29q-105 -41 -212 -41q-109 0 -198 41q-90 41 -148 116q-92 121 -92 277q0 47 10 104l160 822h231l-159 -822q-6 -31 -6 -63q0 -88 51 -156q74 -90 196 -90q59 0 119 24q59 24 109 66q104 86 131 219l159 822h232l-160 -822 q-23 -109 -81 -207t-146 -174q-91 -75 -196 -116z" glyph-name="uacute" unicode="ú"/><glyph d="M1081 1470h-184l-106 117l-152 -117h-184l233 232h250zM693 29q-105 -41 -212 -41q-109 0 -198 41q-90 41 -148 116q-92 121 -92 277q0 47 10 104l160 822h231l-159 -822q-6 -31 -6 -63q0 -88 51 -156q74 -90 196 -90q59 0 119 24q59 24 109 66q104 86 131 219l159 822 h232l-160 -822q-23 -109 -81 -207t-146 -174q-91 -75 -196 -116z" glyph-name="ucircumflex" unicode="û"/><glyph d="M513 1652q38 32 81 31q39 0 63 -24q25 -25 25 -64q0 -12 -2 -18q-10 -43 -47 -75t-80 -32q-39 0 -64 26t-24 60q0 14 2 21q8 43 46 75zM944 1653q37 31 82 30q39 0 64 -24q25 -25 24 -64q0 -12 -2 -18q-10 -43 -47 -75t-80 -32q-39 0 -63 26q-25 26 -25 60q0 14 2 21 q8 45 45 76zM693 29q-105 -41 -212 -41q-109 0 -198 41q-90 41 -148 116q-92 121 -92 277q0 47 10 104l160 822h231l-159 -822q-6 -31 -6 -63q0 -88 51 -156q74 -90 196 -90q59 0 119 24q59 24 109 66q104 86 131 219l159 822h232l-160 -822q-23 -109 -81 -207t-146 -174 q-91 -75 -196 -116z" glyph-name="udieresis" unicode="ü"/><glyph d="M766 1470l235 234h248l-299 -234h-184zM682 694l532 654h277l-741 -897l-88 -451h-230l88 451l-387 897h275z" glyph-name="yacute" horiz-adv-x="1533" unicode="ý"/><glyph d="M583 1652q38 32 81 31q39 0 63 -24q25 -25 25 -64q0 -12 -2 -18q-10 -43 -48 -75q-37 -32 -79 -32q-39 0 -64 26t-24 60q0 14 2 21q8 43 46 75zM1014 1653q37 31 82 30q39 0 63 -24q25 -25 25 -64q0 -12 -2 -18q-10 -43 -47 -75t-80 -32q-39 0 -64 26t-24 60q0 14 2 21 q8 45 45 76zM682 694l532 654h277l-741 -897l-88 -451h-230l88 451l-387 897h275z" glyph-name="ydieresis" horiz-adv-x="1533" unicode="ÿ"/><glyph d="M1360 1116l-64 -325h469l-45 -232h-469l-63 -330h622l-45 -229h-852l19 92q-182 -102 -377 -102q-164 0 -291 71.5t-198.5 198.5t-71.5 283q0 66 12 133q37 186 159 344t297 250t359 92q193 0 338 -100l17 86h852l-46 -232h-622zM809 266q102 47 182 131l109 557 q-47 84 -131 131.5t-191 47.5q-123 0 -238.5 -61.5t-196.5 -166t-105 -229.5q-8 -41 -9 -88q0 -104 47.5 -188.5t131.5 -132.5t192 -48q107 0 209 47z" glyph-name="OE" horiz-adv-x="2148" unicode="Œ"/><glyph d="M1360 1116l-64 -325h469l-45 -232h-469l-63 -330h622l-45 -229h-852l19 92q-182 -102 -377 -102q-164 0 -291 71.5t-198.5 198.5t-71.5 283q0 66 12 133q37 186 159 344t297 250t359 92q193 0 338 -100l17 86h852l-46 -232h-622zM809 266q102 47 182 131l109 557 q-47 84 -131 131.5t-191 47.5q-123 0 -238.5 -61.5t-196.5 -166t-105 -229.5q-8 -41 -9 -88q0 -104 47.5 -188.5t131.5 -132.5t192 -48q107 0 209 47z" glyph-name="oe" horiz-adv-x="2148" unicode="œ"/><glyph d="M1292 1470h-184l-107 117l-151 -117h-184l233 232h250zM1139 618l385 730h243l-729 -1379l-194 811l-510 -811l-197 1379h244l102 -734l475 754z" glyph-name="Wcircumflex" horiz-adv-x="1814" unicode="Ŵ"/><glyph d="M1292 1470h-184l-107 117l-151 -117h-184l233 232h250zM1139 618l385 730h243l-729 -1379l-194 811l-510 -811l-197 1379h244l102 -734l475 754z" glyph-name="wcircumflex" horiz-adv-x="1814" unicode="ŵ"/><glyph d="M1147 1470h-184l-107 117l-151 -117h-185l234 232h250zM682 694l532 654h277l-741 -897l-88 -451h-230l88 451l-387 897h275z" glyph-name="Ycircumflex" horiz-adv-x="1533" unicode="Ŷ"/><glyph d="M1147 1470h-184l-107 117l-151 -117h-185l234 232h250zM682 694l532 654h277l-741 -897l-88 -451h-230l88 451l-387 897h275z" glyph-name="ycircumflex" horiz-adv-x="1533" unicode="ŷ"/><glyph d="M583 1652q38 32 81 31q39 0 63 -24q25 -25 25 -64q0 -12 -2 -18q-10 -43 -48 -75q-37 -32 -79 -32q-39 0 -64 26t-24 60q0 14 2 21q8 43 46 75zM1014 1653q37 31 82 30q39 0 63 -24q25 -25 25 -64q0 -12 -2 -18q-10 -43 -47 -75t-80 -32q-39 0 -64 26t-24 60q0 14 2 21 q8 45 45 76zM682 694l532 654h277l-741 -897l-88 -451h-230l88 451l-387 897h275z" glyph-name="Ydieresis" horiz-adv-x="1533" unicode="Ÿ"/><glyph d="M-135 1470l-209 236h250l143 -236h-184z" glyph-name="gravecomb" horiz-adv-x="0" unicode="̀"/><glyph d="M-1247 1470l235 234h248l-299 -234h-184z" glyph-name="acutecomb" horiz-adv-x="0" unicode="́"/><glyph d="M-819 1470h-185l-106 117l-152 -117h-184l234 232h249z" glyph-name="uni0302" horiz-adv-x="0" unicode="̂"/><glyph d="M-879 1507q-72 -37 -147 -37q-92 0 -158 58q-25 23 -57 22q-27 0 -55 -14q-25 -12 -44.5 -27.5t-23.5 -19.5l-125 110q-4 4 40 38t95 61q82 39 150 39q90 0 153 -58q33 -27 64 -26q20 0 47 16l72 49l127 -110q4 -4 -41.5 -39t-96.5 -62z" glyph-name="tildecomb" horiz-adv-x="0" unicode="̃"/><glyph d="M-98 1654q37 32 82 32q39 0 63.5 -26t24.5 -63q0 -12 -2 -18q-10 -45 -47 -77t-80 -32q-39 0 -63.5 25t-24.5 61q0 14 2 23q8 43 45 75z" glyph-name="uni0307" horiz-adv-x="0" unicode="̇"/><glyph d="M-886 1651.5q38 31.5 81 31.5q39 0 63.5 -24.5t24.5 -63.5q0 -12 -2 -18q-10 -43 -47 -75t-80 -32q-39 0 -63.5 26t-24.5 60q0 14 2 21q8 43 46 74.5zM-455 1652.5q37 30.5 82 30.5q39 0 63.5 -24.5t24.5 -63.5q0 -12 -2 -18q-10 -43 -47 -75t-80 -32q-39 0 -63.5 26 t-24.5 60q0 14 2 21q8 45 45 75.5z" glyph-name="uni0308" horiz-adv-x="0" unicode="̈"/><glyph d="M-996.5 1533.5q-74.5 -63.5 -162.5 -63.5q-78 0 -128 50.5t-50 124.5q0 12 4 41q16 88 92 150t164 62q76 0 126 -50t50 -124q0 -10 -4 -38q-17 -89 -91.5 -152.5zM-1093.5 1706q-6.5 8 -18.5 8t-23.5 -8t-13.5 -20t5 -21.5t20 -9.5q12 0 21 9t13 22q3 12 -3.5 20z" glyph-name="uni030A" horiz-adv-x="0" unicode="̊"/><glyph d="M-1122 -393q-82 -57 -181 -58q-47 0 -88 15.5t-67 42.5q-53 49 -53 123q0 12 4 37h174q-4 -14 14.5 -28.5t50.5 -14.5q31 0 54.5 14t27.5 29q2 14 -16.5 27t-48.5 13h-86l37 193h174l-7 -31q47 -18 72 -43q53 -49 53 -123q0 -12 -4 -36q-18 -97 -110 -160z" glyph-name="uni0327" horiz-adv-x="0" unicode="̧"/><glyph d="M-1358 492h-725l43 229h725z" glyph-name="uni0335" horiz-adv-x="0" unicode="̵"/><glyph d="M-588 1348l-1057 -1348h-268l1057 1348h268z" glyph-name="uni0338" horiz-adv-x="0" unicode="̸"/><glyph d="M895 1470l-209 236h250l143 -236h-184zM1139 618l385 730h243l-729 -1379l-194 811l-510 -811l-197 1379h244l102 -734l475 754z" glyph-name="Wgrave" horiz-adv-x="1814" unicode="Ẁ"/><glyph d="M895 1470l-209 236h250l143 -236h-184zM1139 618l385 730h243l-729 -1379l-194 811l-510 -811l-197 1379h244l102 -734l475 754z" glyph-name="wgrave" horiz-adv-x="1814" unicode="ẁ"/><glyph d="M887 1470l235 234h248l-299 -234h-184zM1139 618l385 730h243l-729 -1379l-194 811l-510 -811l-197 1379h244l102 -734l475 754z" glyph-name="Wacute" horiz-adv-x="1814" unicode="Ẃ"/><glyph d="M887 1470l235 234h248l-299 -234h-184zM1139 618l385 730h243l-729 -1379l-194 811l-510 -811l-197 1379h244l102 -734l475 754z" glyph-name="wacute" horiz-adv-x="1814" unicode="ẃ"/><glyph d="M720 1652q38 32 81 31q39 0 63 -24q25 -25 25 -64q0 -12 -2 -18q-10 -43 -47 -75t-80 -32q-39 0 -64 26t-24 60q0 14 2 21q8 43 46 75zM1151 1653q37 31 82 30q39 0 63 -24q25 -25 25 -64q0 -12 -2 -18q-10 -43 -47 -75t-80 -32q-39 0 -64 26t-24 60q0 14 2 21 q8 45 45 76zM1139 618l385 730h243l-729 -1379l-194 811l-510 -811l-197 1379h244l102 -734l475 754z" glyph-name="Wdieresis" horiz-adv-x="1814" unicode="Ẅ"/><glyph d="M720 1652q38 32 81 31q39 0 63 -24q25 -25 25 -64q0 -12 -2 -18q-10 -43 -47 -75t-80 -32q-39 0 -64 26t-24 60q0 14 2 21q8 43 46 75zM1151 1653q37 31 82 30q39 0 63 -24q25 -25 25 -64q0 -12 -2 -18q-10 -43 -47 -75t-80 -32q-39 0 -64 26t-24 60q0 14 2 21 q8 45 45 76zM1139 618l385 730h243l-729 -1379l-194 811l-510 -811l-197 1379h244l102 -734l475 754z" glyph-name="wdieresis" horiz-adv-x="1814" unicode="ẅ"/><glyph d="M770 1470l-209 236h250l143 -236h-184zM682 694l532 654h277l-741 -897l-88 -451h-230l88 451l-387 897h275z" glyph-name="Ygrave" horiz-adv-x="1533" unicode="Ỳ"/><glyph d="M770 1470l-209 236h250l143 -236h-184zM682 694l532 654h277l-741 -897l-88 -451h-230l88 451l-387 897h275z" glyph-name="ygrave" horiz-adv-x="1533" unicode="ỳ"/><glyph d="M739 561h-725l45 230h725z" glyph-name="endash" horiz-adv-x="970" unicode="–"/><glyph d="M143 1118l170 316h189l-226 -316h-133z" glyph-name="quoteleft" horiz-adv-x="563" unicode="‘"/><glyph d="M143 1118l170 316h189l-228 -316h-131z" glyph-name="quoteright" horiz-adv-x="563" unicode="’"/><glyph d="M-135 -158l172 316h186l-225 -316h-133z" glyph-name="quotesinglbase" horiz-adv-x="552" unicode="‚"/><glyph d="M528 1118l172 316h187l-225 -316h-134zM154 1118l170 316h188l-225 -316h-133z" glyph-name="quotedblleft" horiz-adv-x="978" unicode="“"/><glyph d="M528 1118l172 316h187l-225 -316h-134zM154 1118l172 316h186l-225 -316h-133z" glyph-name="quotedblright" horiz-adv-x="978" unicode="”"/><glyph d="M-135 -158l172 316h186l-225 -316h-133zM-135 -158h133l225 316h-186z" glyph-name="quotedblbase" horiz-adv-x="552" unicode="„"/><glyph d="M373 88q0 12 2 18q10 43 47 75t80 32q39 0 64.5 -24.5t25.5 -61.5q0 -14 -2 -21q-8 -45 -46 -75.5t-83 -30.5q-39 0 -63.5 24.5t-24.5 63.5zM-55 88q0 12 2 18q10 43 47 75t80 32q39 0 63.5 -24.5t24.5 -61.5q0 -14 -2 -21q-8 -45 -45 -75.5t-82 -30.5q-39 0 -63.5 24.5 t-24.5 63.5zM803 88q0 12 2 18q8 45 46 76t81 31q39 0 64.5 -24.5t25.5 -61.5q0 -14 -2 -21q-8 -43 -46 -74.5t-83 -31.5q-39 0 -63.5 25.5t-24.5 62.5z" glyph-name="ellipsis" horiz-adv-x="1359" unicode="…"/><glyph d="M733 434l-55 -282l-621 524l826 522l-56 -285l-376 -237z" glyph-name="guilsinglleft" horiz-adv-x="1009" unicode="‹"/><glyph d="M104 915l56 285l622 -524l-825 -522l53 282l379 240z" glyph-name="guilsinglright" horiz-adv-x="1011" unicode="›"/><glyph d="M1231 1348l-1057 -1348h-268l1057 1348h268z" glyph-name="fraction" horiz-adv-x="1308" unicode="⁄"/><glyph d="M712.5 1083q-102.5 -47 -180.5 -129h326l-45 -229h-418q-4 -12 -14 -51q-4 -18 -5 -30.5t-1 -20.5h418l-45 -232h-326q47 -80 132 -127t189 -47h179l-45 -229h-179q-205 0 -350 110.5t-192 292.5h-205l45 232h147q4 33 9 51q2 8 5 24.5t7 26.5h-148l45 229h205 q115 182 304.5 294t394.5 112h178l-45 -230h-178q-105 0 -207.5 -47z" glyph-name="Euro" horiz-adv-x="1261" unicode="€"/><glyph d="M2576 0h-229l127 649l-586 -643l-340 645l-127 -651h-229l266 1368l506 -967l879 967zM1184 1348l-45 -232h-406l-217 -1116h-229l217 1116h-404l45 232h1039z" glyph-name="trademark" horiz-adv-x="2963" unicode="™"/><glyph d="M739 561h-725l45 230h725z" glyph-name="minus" horiz-adv-x="970" unicode="−"/><glyph d="M768 1362l336 -1362h-252l-197 803l-526 -803h-254z" glyph-name="glyph203" horiz-adv-x="1413"/><glyph d="M768 1362l336 -1362h-252l-197 803l-526 -803h-254z" glyph-name="glyph204" horiz-adv-x="1413"/></font>
</defs>
</svg>
